Welcome Guest ( Log In | Register )

> Dan Baune's Lost Sanctuary - Lost Sanctuary (2021), Power/Thrash Metal
post May 13 2021, 11:04:47
Post #1

Шесть Литров
******
Group: Металариец
Posts: 535
Releases: 481
On Forums: 3 months 1 day
Thanks: 11529 time(s)
United States


(IMG:https://metalarea.org/images/audiocovers/2021_May/acov_tid350800_thumb.jpg)

*Artist: Dan Baune's Lost Sanctuary
*Album: Lost Sanctuary
*Year: 2021
*Genre: Power/Thrash Metal
*Country: Germany (IMG:https://metalarea.org/forum/style_images/flags/Germany.png)
*Format: mp3@CBR320kbps
*Size: 136MB

Tracklist:
01. Arise
02. Open Your Eyes (Feat. Bob Katsionis)
03. Temple Of Fear (Feat. Rasmus Bom Andersen & Jennifer Diehl)
04. God Of War (Feat. Aliki Katriou)
05. No Man's Land
06. Master Of You (Feat. Matt Mitchell)
07. Lost Sanctuary (Feat. Doogie White & Chris Webb)
08. The Arconite
09. Virtual Hedonia
10. Unholy (Feat. Herbie Langhans, Aliki Katriou & Jennifer Diehl)
11. Rhapsody Of Life
******************************
Total playing time: 55:59




Technical info
(IMG:https://metalarea.org/images/spectrogram/2021_May/05a8a64711185ac0a219b569ab1ecef4.png)
Input File: 02. Open Your Eyes.mp3
Channels : 2
Sample Rate : 44100
Precision : 16-bit
Duration : 00:03:16.30 = 8656742 samples = 14722.4 CDDA sectors
File Size : 7.92M
Bit Rate : 323k
Sample Encoding: MPEG audio (layer I, II or III)
Comments :
Title=Open Your Eyes
Artist=Dan Baune's Lost Sanctuary
Album=Lost Sanctuary
Tracknumber=2
Year=2021-05-14
Genre=Rock
Discnumber=1



Register


Go to the top of the page
  Insert nick Quick quote
+Quote Post
 
Start new topic
Replies (1 - 4)
post May 14 2021, 17:40:09
Post #2

Тридцать лет на борту "Тяжёлого" крейсера
**************
Group: Металариец
Posts: 2,627
Releases: 0
From: Питер
On Forums: 14 years 1 month
Thanks: 823 time(s)
Russian Federation


Местами есть где уху зацепиться, но порой вокал довольно отвратительно меняет общую картину
на 3+ пластинка
Go to the top of the page
  Insert nick Quick quote
+Quote Post
post May 14 2021, 20:54:20
Post #3

Шесть Литров
******
Group: Металариец
Posts: 561
Releases: 0
From: Лыткарино
On Forums: 2 years 2 months
Thanks: 146 time(s)
Russian Federation


Есть удачные ходы, но в целом несколько халтурный шаблон.
Go to the top of the page
  Insert nick Quick quote
+Quote Post
post May 22 2021, 14:48:55
Post #4

Пять Литров
*****
Group: Металариец
Posts: 423
Releases: 5
From: Суворов
On Forums: 3 years 6 months
Thanks: 87 time(s)
Russian Federation


второй трек - хитяра!
Go to the top of the page
  Insert nick Quick quote
+Quote Post
post May 25 2021, 03:51:24
Post #5

Ъ
**************
Group: Металариец
Posts: 10,675
Releases: 9
On Forums: 12 years 6 months
Thanks: 2177 time(s)
Sweden


Третьесорт.
Go to the top of the page
  Insert nick Quick quote
+Quote Post

Reply to this topicStart new topic
1 User(s) are reading this topic (1 Guests and 0 Anonymous Users)
0 Members:

 



- Lo-Fi Version Support form
Copyrights and abuse reports form
Time is now: 29th July 2021 - 01:40:16