Welcome Guest ( Log In | Register )

 
Reply to this topicStart new topic
> Crawling Manifest - Radical Absolution (2021), Melodic Heavy/Thrash Metal
post May 13 2021, 11:08:09
Post #1

Шесть Литров
******
Group: Металариец
Posts: 535
Releases: 481
On Forums: 3 months 1 day
Thanks: 11532 time(s)
United States


(IMG:http://metalarea.org/images/audiocovers/2021_May/acov_tid350801_thumb.jpg)

*Artist: Crawling Manifest
*Album: Radical Absolution
*Year: 2021
*Genre: Melodic Heavy/Thrash Metal
*Country: United States (IMG:http://metalarea.org/forum/style_images/flags/United%20States.png)
*Format: mp3@CBR320kbps
*Size: 96MB

Tracklist:
01. Land Of The Free 02:27
02. World War III 04:42
03. Nothing To Lose 06:11
04. Right To Refrain Silence 04:27
05. Radical Absolution 06:49
06. Blood Born 04:08
07. Revolution 04:08
08. Onslaught 05:00
******************************
Total playing time: 37:52



Technical info
(IMG:http://metalarea.org/images/spectrogram/2021_May/8546cb683f546a97f0da535afb0eca90.png)
Input File: 02. World War III.mp3
Channels : 2
Sample Rate : 44100
Precision : 16-bit
Duration : 00:04:42.09 = 12440125 samples = 21156.7 CDDA sectors
File Size : 11.4M
Bit Rate : 322k
Sample Encoding: MPEG audio (layer I, II or III)
Comments :
Title=World War III
Artist=Crawling Manifest
Album=Radical Absolution
Tracknumber=2
Year=2021-05-14
Genre=Alternative / Indie Rock / Metal
Discnumber=1



Register


Go to the top of the page
  Insert nick Quick quote
+Quote Post

Reply to this topicStart new topic
1 User(s) are reading this topic (1 Guests and 0 Anonymous Users)
0 Members:

 



- Lo-Fi Version Support form
Copyrights and abuse reports form
Time is now: 29th July 2021 - 12:27:14