Welcome Guest ( Log In | Register )

 
Reply to this topicStart new topic
> Opprobre - Fragments De Destinée (2021), Atmospheric/Post-Black Metal
post May 13 2021, 11:10:15
Post #1

Шесть Литров
******
Group: Металариец
Posts: 545
Releases: 485
On Forums: 4 months 3 weeks
Thanks: 12098 time(s)
United States


(IMG:http://metalarea.org/images/audiocovers/2021_May/acov_tid350802_thumb.jpg)

*Artist: Opprobre
*Album: Fragments De Destinée
*Year: 2021
*Genre: Atmospheric/Post-Black Metal
*Country: France (IMG:http://metalarea.org/forum/style_images/flags/France.png)
*Format: mp3@CBR320kbps
*Size: 171MB

Tracklist:
01. Vertige, Pt.1
02. Vertige, Pt.2
03. Renouveau
04. Reddition
05. Absence
06. Steppes
07. L'Épreuve
08. Indifférence
09. Cendres
******************************
Total playing time: 1:10:22



Technical info
(IMG:http://metalarea.org/images/spectrogram/2021_May/68f9378d9d1a87adca3d6d22e1586a4f.png)
Input File: 02. Vertige (Pt. 2).mp3
Channels : 2
Sample Rate : 44100
Precision : 16-bit
Duration : 00:07:02.09 = 18613993 samples = 31656.5 CDDA sectors
File Size : 16.9M
Bit Rate : 321k
Sample Encoding: MPEG audio (layer I, II or III)
Comments :
Title=Vertige (Pt. 2)
Artist=Opprobre
Album=Fragments de destinées
Tracknumber=2
Year=2021-05-14
Genre=Metal
Discnumber=1



Register


Go to the top of the page
  Insert nick Quick quote
+Quote Post

Reply to this topicStart new topic
1 User(s) are reading this topic (1 Guests and 0 Anonymous Users)
0 Members:

 



- Lo-Fi Version Support form
Copyrights and abuse reports form
Time is now: 19th September 2021 - 17:17:19