Welcome Guest ( Log In | Register )

 
Reply to this topicStart new topic
> Abysmal Growls Of Despair - Eternity Lies Blackened (2020), Funeral Doom Metal/Drone (D)
post May 13 2021, 11:52:51
Post #1

Serial Uploader
Group Icon
Group: V.I.P
Posts: 37,612
Releases: 35784
From: Lithuania
On Forums: 13 years 3 months
Thanks: 433497 time(s)
Lithuania


(IMG:https://metalarea.org/images/audiocovers/2021_May/acov_tid350813_thumb.jpg)

*Artist: Abysmal Growls Of Despair
*Album: Eternity Lies Blackened
*Year: 2020
*Genre: Funeral Doom Metal/Drone
*Country: France (IMG:https://metalarea.org/forum/style_images/flags/France.png)
*Format: mp3@CBR320kbps
*Size: 115MB

Tracklist:
01. Pestilent Nadir 05:02
02. Eternity Lies Blackened 12:28
03. Chthonian Splendour 17:59
04. Dawn of an Aphotic Empire 15:52
******************************
Total playing time: 51:21





Technical info
(IMG:https://metalarea.org/images/spectrogram/2021_May/33b1fe0bbac69c76ed481e51fc56a3be.png)
Input File: 01. Pestilent Nadir.mp3
Channels : 2
Sample Rate : 44100
Precision : 16-bit
Duration : 00:05:02.07 = 13321287 samples = 22655.2 CDDA sectors
File Size : 12.1M
Bit Rate : 322k
Sample Encoding: MPEG audio (layer I, II or III)
Comments :
Title=Pestilent Nadir
Artist=Abysmal Growls Of Despair
Album=Eternity Lies Blackened
Tracknumber=01/04
Year=2020
Genre=Funeral Doom Metal / Drone Doom



Register


Go to the top of the page
  Insert nick Quick quote
+Quote Post

Reply to this topicStart new topic
1 User(s) are reading this topic (1 Guests and 0 Anonymous Users)
0 Members:

 



- Lo-Fi Version Support form
Copyrights and abuse reports form
Time is now: 18th September 2021 - 15:43:35