Welcome Guest ( Log In | Register )

 
Reply to this topicStart new topic
> Project: Roenwolfe - Edge Of Saturn (2021), Power/Thrash Metal (D4)
post May 13 2021, 12:02:02
Post #1

Шесть Литров
******
Group: Металариец
Posts: 535
Releases: 479
On Forums: 2 months 3 weeks
Thanks: 11427 time(s)
United States


(IMG:http://metalarea.org/images/audiocovers/2021_May/acov_tid350815_thumb.jpg)

*Artist: Project: Roenwolfe
*Album: Edge Of Saturn
*Year: 2021
*Genre: Power/Thrash Metal
*Country: United States (IMG:http://metalarea.org/forum/style_images/flags/United%20States.png)
*Format: mp3@CBR320kbps
*Size: 112MB

Tracklist:
01. Song Of Kali
02. Something More
03. Promethium
04. Edge Of Saturn
05. Mastermind Manipulators
06. Starbound Butcher Of My Dreams
07. Of Mice And Straw Men
08. Aeternum Vale
******************************
Total playing time: 45:50



Technical info
(IMG:http://metalarea.org/images/spectrogram/2021_May/5848ce12496c193acaf47676a196751d.png)
Input File: 02. Something More.mp3
Channels : 2
Sample Rate : 44100
Precision : 16-bit
Duration : 00:04:28.30 = 11831810 samples = 20122.1 CDDA sectors
File Size : 10.8M
Bit Rate : 322k
Sample Encoding: MPEG audio (layer I, II or III)
Comments :
Title=Something More
Artist=Project Roenwolfe
Album=Edge of Saturn
Tracknumber=2
Year=2021-05-14
Genre=Alternative / Indie Rock / Metal
Discnumber=1



Register


Go to the top of the page
  Insert nick Quick quote
+Quote Post

Reply to this topicStart new topic
1 User(s) are reading this topic (1 Guests and 0 Anonymous Users)
0 Members:

 



- Lo-Fi Version Support form
Copyrights and abuse reports form
Time is now: 24th July 2021 - 10:05:26