Welcome Guest ( Log In | Register )

> Releases Upload / Добавление релизов

Добавить релиз тут / Click here to add release
Рекомендованные обменники / Recommended file shares

 
Reply to this topicStart new topic
> Kings Rot - The Shadow Of The Accursed (2021), Black Metal
post May 13 2021, 18:03:57
Post #1

Malum dominus omnium
****
Group: Металариец
Posts: 364
Releases: 275
On Forums: 1 year 3 months
Thanks: 5515 time(s)
Vatican City


(IMG:https://metalarea.org/images/audiocovers/2021_May/acov_tid350837_thumb.jpg)

*Artist: Kings Rot
*Album: The Shadow Of The Accursed
*Year: 2021
*Genre: Black Metal
*Country: Canada (IMG:https://metalarea.org/forum/style_images/flags/Canada.png)
*Format: mp3@CBR320kbps
*Size: 116MB

Tracklist:
1. Fall of the Witch King 06:27
2. Gaze Upon The Pale Serpent 04:32
3. On Fellbeasts They Come... 07:17
4. Hollow 05:27
5. Upheaval of Black Cosmic Divinity 04:47
6. In My Dreams of Darkness 04:16
7. Ominous Drudge 05:04
8. Father of Ash, Lord of Despair 12:03
******************************
Total playing time: 49:53



(IMG:https://metalarea.org/images/youtube.png)
Metal Archives

Technical info
(IMG:https://metalarea.org/images/spectrogram/2021_May/2a6a9b84acb6d2edaf89184d7d353f44.png)
Input File: Kings Rot - 1 Fall of the Witch King.mp3
Channels : 2
Sample Rate : 44100
Precision : 16-bit
Duration : 00:06:27.91 = 17107007 samples = 29093.5 CDDA sectors
File Size : 15.5M
Bit Rate : 320k
Sample Encoding: MPEG audio (layer I, II or III)
Comments :
Title=Fall of the Witch King
Artist=Kings Rot
Album=The Shadow of the Accursed
Tracknumber=1
Year=2021
Genre=Black Metal



Register


Go to the top of the page
  Insert nick Quick quote
+Quote Post

Reply to this topicStart new topic
2 User(s) are reading this topic (2 Guests and 0 Anonymous Users)
0 Members:

 



- Lo-Fi Version Support form
Copyrights and abuse reports form
Time is now: 19th June 2021 - 23:24:18