Welcome Guest ( Log In | Register )

> Releases Upload / Добавление релизов

Добавить релиз тут / Click here to add release
Рекомендованные обменники / Recommended file shares

 
Reply to this topicStart new topic
> O Fim - A Profanação Do 13 De Maio (2021), Raw Black Metal/Noise
post May 13 2021, 19:39:00
Post #1

Malum dominus omnium
****
Group: Металариец
Posts: 364
Releases: 275
On Forums: 1 year 3 months
Thanks: 5496 time(s)
Vatican City


(IMG:https://metalarea.org/images/audiocovers/2021_May/acov_tid350842_thumb.jpg)

*Artist: O Fim
*Album: A Profanação Do 13 De Maio
*Year: 2021
*Genre: Raw Black Metal/Noise
*Country: Portugal (IMG:https://metalarea.org/forum/style_images/flags/Portugal.png)
*Format: mp3@CBR320kbps
*Size: 77MB

Tracklist:
1. Fornicação I: - Introdução da Profanação da Minha Caótica Existência... 04:46
2. Fornicação II: - Penumbra Nocturna 07:53
3. Fornicação III: - Silêncio Feroz 03:44
4. Profanação IV: - Observando a Minha Morte 02:37
5. Profanação V: - A Minha Profana Existência 02:02
6. Profanação VI: - Morte Abrupta 03:51
7. Profanação VII: - Deus Morreu 04:58
8. Profanação VIII: - As Fúnebres Sombras dos Mensageiros da Morte, Que Carregam os Restos da Minha Miserável Existência... 02:45
******************************
Total playing time: 32:36


(IMG:https://metalarea.org/images/youtube.png)

Technical info
(IMG:https://metalarea.org/images/spectrogram/2021_May/bf34f3360642fb7050115a77d2edcc3b.png)
Input File: O Fim - Fornicação I Introdução da Profanação da Minha Caótica Existência.mp3
Channels : 2
Sample Rate : 44100
Precision : 16-bit
Duration : 00:04:46.89 = 12651981 samples = 21517 CDDA sectors
File Size : 11.5M
Bit Rate : 320k
Sample Encoding: MPEG audio (layer I, II or III)
Comments :
Title=Fornicação I: - Introdução da Profanação da Minha Caótica Existência...
Artist=O Fim
Album=A Profanação do 13 de Maio
Tracknumber=1
Year=2021
Genre=Raw Black Metal



Register


Go to the top of the page
  Insert nick Quick quote
+Quote Post

Reply to this topicStart new topic
2 User(s) are reading this topic (2 Guests and 0 Anonymous Users)
0 Members:

 



- Lo-Fi Version Support form
Copyrights and abuse reports form
Time is now: 19th June 2021 - 11:23:20