Welcome Guest ( Log In | Register )

> Releases Upload / Добавление релизов

Добавить релиз тут / Click here to add release
Рекомендованные обменники / Recommended file shares

> Leif - Gateways (2021), Melodic Black Metal
post May 13 2021, 21:48:46
Post #1

Malum dominus omnium
****
Group: Металариец
Posts: 364
Releases: 275
On Forums: 1 year 3 months
Thanks: 5496 time(s)
Vatican City


(IMG:https://metalarea.org/images/audiocovers/2021_May/acov_tid350846_thumb.jpg)

*Artist: Leif
*Album: Gateways
*Year: 2021
*Genre: Melodic Black Metal
*Country: Germany (IMG:https://metalarea.org/forum/style_images/flags/Germany.png)
*Format: mp3@CBR320kbps
*Size: 103MB

Tracklist:
1. Astral Fall 05:04
2. Where the Waves Meet the Void 06:32
3. A Step into Darkness 04:22
4. Black Flame 05:12
5. Salt and Snow 08:47
6. The Gate 05:11
7. Into the Storm 04:36
8. Ruin 04:48
******************************
Total playing time: 44:32


Metal Archives
(IMG:https://metalarea.org/images/youtube.png)

Technical info
(IMG:https://metalarea.org/images/spectrogram/2021_May/3bcf58f6bd05574c3bfe50c3ba594922.png)
Input File: Leif - 2 Where the waves meet the void.mp3
Channels : 2
Sample Rate : 44100
Precision : 16-bit
Duration : 00:06:32.54 = 17310882 samples = 29440.3 CDDA sectors
File Size : 15.7M
Bit Rate : 320k
Sample Encoding: MPEG audio (layer I, II or III)
Comments :
Title=Where the waves meet the void
Artist=Leif
Album=Gateways
Tracknumber=2
Year=2021
Genre=Black Metal



Register


Go to the top of the page
  Insert nick Quick quote
+Quote Post
 
Start new topic
Replies (1 - 3)
post May 16 2021, 17:09:39
Post #2

Common dweller of hell
**************
Group: Металариец
Posts: 3,823
Releases: 12
From: Dnipro
On Forums: 12 years 11 months
Thanks: 1506 time(s)
Ukraine


Вполне достойный MBM.
Lossless не имеется?
Go to the top of the page
  Insert nick Quick quote
+Quote Post
post May 18 2021, 12:42:07
Post #3

Ъ
**************
Group: Металариец
Posts: 10,650
Releases: 9
On Forums: 12 years 5 months
Thanks: 2170 time(s)
Sweden


На раз послушать норм.
Go to the top of the page
  Insert nick Quick quote
+Quote Post
post May 24 2021, 12:55:15
Post #4

Common dweller of hell
**************
Group: Металариец
Posts: 3,823
Releases: 12
From: Dnipro
On Forums: 12 years 11 months
Thanks: 1506 time(s)
Ukraine


Lossless подкиньте (IMG:style_emoticons/default/20.gif)
Go to the top of the page
  Insert nick Quick quote
+Quote Post

Reply to this topicStart new topic
2 User(s) are reading this topic (2 Guests and 0 Anonymous Users)
0 Members:

 



- Lo-Fi Version Support form
Copyrights and abuse reports form
Time is now: 19th June 2021 - 11:33:10