Welcome Guest ( Log In | Register )

> И неформату есть предел.

Рэп/хип-хоп/шансон/поп удаляются. Для них есть свои порталы.

> Throat - Smile Less (2021), Sludge/Noise Rock (D9)
post May 14 2021, 16:18:14
Post #1

Правь статус, ####!111
**************
Group: Металариец
Posts: 4,158
Releases: 3800
From: Одесса
On Forums: 13 years 1 month
Thanks: 41559 time(s)
Ukraine


(IMG:http://metalarea.org/images/audiocovers/2021_May/acov_tid350871_thumb.jpg)

*Artist: Throat
*Album: Smile Less
*Year: 2021
*Genre: Sludge/Noise Rock
*Country: Finland (IMG:http://metalarea.org/forum/style_images/flags/Finland.png)
*Format: mp3@CBR320kbps
*Size: 91MB

Tracklist:
1. Conveyer Line 06:50
2. Grounding 05:31
3. Shots 02:53
4. Deadpan 04:42
5. Home Is Where Your Hurt Is 08:19
6. Vanilla Cuts 03:42
7. Hospice 05:59
******************************
Total playing time: 37:56



Extended info
Line - up:

Aleksis Juhakoski - Guitars (ex-Harvest Bell)
Jukka Mattila - Guitars, Vocals (ex-Stumm, ex-A.M., Anon Plus)
Lauri Leppänen - Bass
A Kinnunen - Drums


Technical info
(IMG:http://metalarea.org/images/spectrogram/2021_May/bea5e55c6e94c1890f970bdf99d256e1.png)
Input File: 07 - Hospice.mp3
Channels : 2
Sample Rate : 44100
Precision : 16-bit
Duration : 00:05:59.00 = 15831900 samples = 26925 CDDA sectors
File Size : 14.4M
Bit Rate : 320k
Sample Encoding: MPEG audio (layer I, II or III)
Comments :
Title=Hospice
Artist=Throat
Album=Smile Less
Tracknumber=7
Year=2021-14-05
Genre=Sludge Metal/Noise Rock



Register


Go to the top of the page
  Insert nick Quick quote
+Quote Post
 
Start new topic
Replies (1 - 1)
post May 18 2021, 20:03:10
Post #2

metalareanaut
******
Group: Металариец
Posts: 583
Releases: 3
From: Moscou profanе
On Forums: 13 years 4 months
Thanks: 509 time(s)
Russian Federation


Интересная музыка. В работе ритм-секции явно прослеживается стиль классиков "шумного рока" Jesus Lizard.
Go to the top of the page
  Insert nick Quick quote
+Quote Post

Reply to this topicStart new topic
2 User(s) are reading this topic (2 Guests and 0 Anonymous Users)
0 Members:

 



- Lo-Fi Version Support form
Copyrights and abuse reports form
Time is now: 24th July 2021 - 12:57:28