Welcome Guest ( Log In | Register )

> Midnight Betrothed - Dreamless (2021), Black Metal
post May 14 2021, 20:03:22
Post #1

Правь статус, ####!111
**************
Group: Металариец
Posts: 2,307
Releases: 1860
From: Praha
On Forums: 7 years 3 months
Thanks: 49344 time(s)
Czech Republic


(IMG:http://metalarea.org/images/audiocovers/2021_May/acov_tid350879_thumb.jpg)

*Artist: Midnight Betrothed
*Album: Dreamless
*Year: 2021
*Genre: Black Metal
*Country: Australia (IMG:http://metalarea.org/forum/style_images/flags/Australia.png)
*Format: mp3@CBR320kbps
*Size: 74MB

Tracklist:
1. A House In The Distance... (Intro) 01:50
2. A Snow-Crested Heart 06:05
3. Stop Visiting My Grave 06:29
4. Bygone Fortunes 05:29
5. It Was Once Just A Glimpse 06:04
6. What Quietly Arose In His Soul 06:13
******************************
Total playing time: 32:10



Technical info
(IMG:http://metalarea.org/images/spectrogram/2021_May/ff597d56679b0d297a4fb4ad89e7c8c2.png)
Input File: 02. A Snow-Crested Heart.mp3
Channels : 2
Sample Rate : 44100
Precision : 16-bit
Duration : 00:06:05.66 = 16125562 samples = 27424.4 CDDA sectors
File Size : 14.7M
Bit Rate : 321k
Sample Encoding: MPEG audio (layer I, II or III)
Comments :
Title=A Snow-Crested Heart
Artist=Midnight Betrothed
Album=Dreamless
Tracknumber=02/06
Year=2021
Genre=Black metal



Register


Go to the top of the page
  Insert nick Quick quote
+Quote Post
 
Start new topic
Replies (1 - 6)
post May 15 2021, 11:03:11
Post #2

ZEHTAN!
******
Group: Металариец
Posts: 689
Releases: 32
From: Germany
On Forums: 15 years 5 months
Thanks: 1243 time(s)
Germany


"Download limit exceeded. You can save the file to Yandex.Disk and download it from there."

Re-Upload Please! (IMG:style_emoticons/default/smile1.gif)

Thank You.
Go to the top of the page
  Insert nick Quick quote
+Quote Post
post May 15 2021, 11:52:12
Post #3

Маньяк
**********
Group: Металариец
Posts: 1,119
Releases: 0
On Forums: 10 years 2 months
Thanks: 539 time(s)
Unknown


QUOTE(craP_cillA @ May 15 2021, 11:03:11) *
"Download limit exceeded. You can save the file to Yandex.Disk and download it from there."

Re-Upload Please! (IMG:style_emoticons/default/smile1.gif)

Thank You.

Make a yandex account. Then you can download it past the uploader limit.


Thanks:
Go to the top of the page
  Insert nick Quick quote
+Quote Post
post May 15 2021, 13:24:13
Post #4

Пять Литров
*****
Group: Металариец
Posts: 419
Releases: 18
On Forums: 7 years 11 months
Thanks: 757 time(s)
Iceland


QUOTE(Ostinato @ May 15 2021, 12:52:12) *
Make a yandex account. Then you can download it past the uploader limit.


Ridiculous. Just download it from Metal Tracker if uploaders can't do it proper: https://en.metal-tracker.com/torrents/310458.html


Go to the top of the page
  Insert nick Quick quote
+Quote Post
post May 15 2021, 15:25:29
Post #5

De Mysteriis Dom Sathanas
**************
Group: Металариец
Posts: 4,231
Releases: 63
From: Doom
On Forums: 13 years 3 weeks
Thanks: 3635 time(s)
Russian Federation


Что-то в этом есть. Ассоциации с Angizia по клавишам, вспомнил тот отличный сплит с Amestigon
Go to the top of the page
  Insert nick Quick quote
+Quote Post
post May 16 2021, 12:44:34
Post #6

градусы контрастов
**************
Group: Металариец
Posts: 5,144
Releases: 0
On Forums: 5 years 6 months
Thanks: 3329 time(s)
Unknown


как бы выразился Фо в этой ситуации: пионерский утренник для дебилов(ц)
ну что ж, мне нравится)
такое что то невыразимо ущербное, но тем не менее суровое.
Go to the top of the page
  Insert nick Quick quote
+Quote Post
post May 16 2021, 15:05:44
Post #7

ZEHTAN!
******
Group: Металариец
Posts: 689
Releases: 32
From: Germany
On Forums: 15 years 5 months
Thanks: 1243 time(s)
Germany


QUOTE(Ostinato @ May 15 2021, 12:52:12) *
Make a yandex account. Then you can download it past the uploader limit.


i know..but i don't want to! (IMG:style_emoticons/default/smile3.gif) velmi re-uploaded it! (IMG:style_emoticons/default/9.gif)
Go to the top of the page
  Insert nick Quick quote
+Quote Post

Reply to this topicStart new topic
2 User(s) are reading this topic (2 Guests and 0 Anonymous Users)
0 Members:

 



- Lo-Fi Version Support form
Copyrights and abuse reports form
Time is now: 4th August 2021 - 13:06:29