Welcome Guest ( Log In | Register )

> Gjeldrune - Слово Посеет Смуту (2021), Folk Metal (D5)
post May 15 2021, 02:53:25
Post #1

Правь статус, ####!111
**************
Group: Металариец
Posts: 26,728
Releases: 19290
From: Г.Харьков
On Forums: 9 years 2 months
Thanks: 386114 time(s)
Unknown


(IMG:https://metalarea.org/images/audiocovers/2021_May/acov_tid350891_thumb.jpg)

*Artist: Gjeldrune
*Album: Слово Посеет Смуту
*Year: 2021
*Genre: Folk Metal
*Country: Russian Federation (IMG:https://metalarea.org/forum/style_images/flags/Russian%20Federation.png)
*Format: mp3@CBR320kbps
*Size: 119MB

Tracklist:
1. Всюду должно послушанье царить 00:42
2. Пламя бунта 04:30
3. Бей своего 04:31
4. Русская смерть 03:51
5. Не сдались! 05:08
6. Новый год 03:42
7. Слово посеет смуту 05:23
8. Атлант, расправь свои плечи 06:41
9. Буданов 05:04
10. Русская зима 05:23
11. Только ночь продержись 06:05
******************************
Total playing time: 51:00



Preview 3

Extended info
Sergey Usachyov Guitars
Nikita Serkov Bass
Fedor Nazarov Flute, Guitars
Ksenia Bolshakova Keyboards
Evgeny Suchkov Vocals, Jew's harp
Alexander Ramzdorf Guitars



Technical info
(IMG:https://metalarea.org/images/spectrogram/2021_May/4d996846849dac1433e7eee2cc5de52e.png)
Input File: 07 - Slovo poseet smutu.mp3
Channels : 2
Sample Rate : 44100
Precision : 16-bit
Duration : 00:05:23.00 = 14244300 samples = 24225 CDDA sectors
File Size : 13.1M
Bit Rate : 325k
Sample Encoding: MPEG audio (layer I, II or III)
Comments :
Title=Slovo poseet smutu
Artist=Gjeldrune
Album=Slovo poseet smutu
Tracknumber=7
Year=2021-05-15
Genre=Rock/Metal
Discnumber=1



Register


Go to the top of the page
  Insert nick Quick quote
+Quote Post
 
Start new topic
Replies (1 - 4)
post May 17 2021, 11:20:04
Post #2

кручу наждак
**************
Group: Металариец
Posts: 5,051
Releases: 104
From: Самара
On Forums: 11 years 2 months
Thanks: 4079 time(s)
Russian Federation


Какая-то ультра-пафосная хуцпа, как будто Монгол Шуудан заиграл павер.
Ниасилил.


Thanks:
(1) Brann,
Go to the top of the page
  Insert nick Quick quote
+Quote Post
post May 17 2021, 21:29:20
Post #3

Шесть Литров
******
Group: Металариец
Posts: 501
Releases: 0
From: Москва
On Forums: 14 years 9 months
Thanks: 111 time(s)
Russian Federation


Отличный альбом патриотов земли русской.


Thanks:
Go to the top of the page
  Insert nick Quick quote
+Quote Post
post May 26 2021, 15:49:58
Post #4

0%Tolerance
**********
Group: Металариец
Posts: 1,169
Releases: 0
On Forums: 8 years 10 months
Thanks: 208 time(s)
Unknown


Ребятки здесь как-то скатились в какой-то корявый неинтересный около говнопавер. А ведь играли на всём своём протяжении более-менее неплохо, отдельные песТни даже нравились помнится.
Go to the top of the page
  Insert nick Quick quote
+Quote Post
post May 30 2021, 17:29:57
Post #5

Перевозчик
**************
Group: Металариец
Posts: 3,298
Releases: 0
On Forums: 13 years 4 weeks
Thanks: 737 time(s)
Russian Federation


ЦИТАТА(judaz @ May 17 2021, 13:20:04) *
как будто Монгол Шуудан заиграл павер.

Они в принципе его в последнее время и играют. (IMG:style_emoticons/default/bye.gif) И это прекрасно!
Go to the top of the page
  Insert nick Quick quote
+Quote Post

Reply to this topicStart new topic
2 User(s) are reading this topic (2 Guests and 0 Anonymous Users)
0 Members:

 



- Lo-Fi Version Support form
Copyrights and abuse reports form
Time is now: 1st August 2021 - 10:31:31