Welcome Guest ( Log In | Register )

> Crypta - Starvation [single] (2021), Melodic Death Metal
post May 16 2021, 18:49:51
Post #1

Правь статус, ####!111
**************
Group: Металариец
Posts: 26,658
Releases: 19228
From: Г.Харьков
On Forums: 9 years 2 months
Thanks: 384077 time(s)
Unknown


(IMG:https://metalarea.org/images/audiocovers/2021_May/acov_tid350933_thumb.jpg)

*Artist: Crypta
*Album: Starvation [single]
*Year: 2021
*Genre: Melodic Death Metal
*Country: International (IMG:https://metalarea.org/forum/style_images/flags/International.png)
*Format: mp3@CBR320kbps
*Size: 22MB

Tracklist:
1. Starvation 04:16
2. From the Ashes 05:11
******************************
Total playing time: 9:27




Extended info
Brazil / Netherlands
Luana Dametto Drums (2019-present)
See also: ex-Apophizys, ex-Nervosa
Tainá Bergamaschi Guitars (2019-present)
See also: ex-Hagbard
Sonia Anubis Guitars (2019-present)
See also: Cobra Spell, Ursinne, ex-Burning Witches, ex-Ecocide, ex-Jackal, ex-Sepiroth, ex-Shade of Hatred
Fernanda Lira Vocals, Bass (2019-present)
See also: ex-Detonator, ex-HellArise, ex-Nervosa, ex-Hellgard



Technical info
(IMG:https://metalarea.org/images/spectrogram/2021_May/78ecf2dbb363eed9f56558a0ab78f213.png)
Input File: 02 - From the Ashes.mp3
Channels : 2
Sample Rate : 44100
Precision : 16-bit
Duration : 00:05:11.00 = 13715100 samples = 23325 CDDA sectors
File Size : 12.6M
Bit Rate : 323k
Sample Encoding: MPEG audio (layer I, II or III)
Comments :
Title=From the Ashes
Artist=Crypta
Album=Starvation
Tracknumber=2
Year=2021-05-11
Genre=Metal
Discnumber=1



Register


Go to the top of the page
  Insert nick Quick quote
+Quote Post
 
Start new topic
Replies (1 - 4)
post May 17 2021, 19:22:34
Post #2

MDM-Thrash Metal
**************
Group: Металариец
Posts: 10,482
Releases: 1257
From: Одесса
On Forums: 13 years 11 months
Thanks: 30642 time(s)
Ukraine


О, знакомые все лица, экс Nervosавки.
Неплохо, но, на мой взгляд, раньше было поинтереснее.
Go to the top of the page
  Insert nick Quick quote
+Quote Post
post May 18 2021, 11:34:52
Post #3

Пять Литров
*****
Group: Металариец
Posts: 493
Releases: 0
From: Ташкент
On Forums: 13 years 5 months
Thanks: 160 time(s)
Uzbekistan


Мне наоборот, Крипта больше Нервозы нравится. Ну и Сонечка лапочка.


Go to the top of the page
  Insert nick Quick quote
+Quote Post
post May 19 2021, 18:07:06
Post #4

brutalcesar
**************
Group: Металариец
Posts: 18,226
Releases: 71
From: Рязань
On Forums: 12 years 6 months
Thanks: 10280 time(s)
Russian Federation


Очень хорошо! Ждём альбом в июне (IMG:style_emoticons/default/20.gif)
Go to the top of the page
  Insert nick Quick quote
+Quote Post
post Jun 28 2021, 14:28:19
Post #5

...Only Death Is Real...
**************
Group: Металариец
Posts: 2,967
Releases: 19
On Forums: 11 years 3 days
Thanks: 1979 time(s)
Antarctica


All links is dead. (IMG:style_emoticons/default/21.gif)
Go to the top of the page
  Insert nick Quick quote
+Quote Post

Reply to this topicStart new topic
2 User(s) are reading this topic (2 Guests and 0 Anonymous Users)
0 Members:

 



- Lo-Fi Version Support form
Copyrights and abuse reports form
Time is now: 25th July 2021 - 03:41:19