Welcome Guest ( Log In | Register )

> И неформату есть предел.

Рэп/хип-хоп/шансон/поп удаляются. Для них есть свои порталы.

 
Reply to this topicStart new topic
> Various Artists - Sonic Seducer: Cold Hands Seduction Vol. 226 [compilation] (2021), Various Gothic/Electro (D2225)
post May 20 2021, 19:24:35
Post #1

Мегаманьяк
***********
Group: Металариец
Posts: 1,736
Releases: 462
On Forums: 13 years 6 months
Thanks: 6757 time(s)
Ireland


(IMG:https://metalarea.org/images/audiocovers/2021_May/acov_tid351095_thumb.jpg)

*Artist: Various Artists
*Album: Sonic Seducer: Cold Hands Seduction Vol. 226 [compilation]
*Year: 2021
*Genre: Various Gothic/Electro
*Country: Many (IMG:https://metalarea.org/forum/style_images/flags/Many.png)
*Format: mp3@CBR320kbps
*Size: 174MB

Tracklist:
1. Moonspell - The Greater Good (Live In Porto)
2. Eisbrecher - FAKK (Versus Goliath Trapmix)
3. Frozen Plasma - Generation Of The Lost (Live In Utrecht)
4. Rue Oberkampf - Tokyo (Xyntec Remix)
5. Wisborg - Fall From Grace
6. XotoX - UFO (ES23 Remix)
7. Radarfield - Vampire Diary
8. Elektrostaub feat. Henrik Iversen - Wake Up
9. Pyrroline - Song Of Deliverance
10. Coldun - I Dreamed That Dream
11. Helalyn Flowers feat. ImJudas - Suicidal Birds (Remix)
12. Beyond Frequencies - After Dark
13. Acylum - Fire
14. Arbeitsgruppe Lobotomie - Digitales Herz
15. FAUST 'n' Roll - Armer Tor
16. Lynn's Intention - You Drink Poison
******************************
Total playing time: 1:17:21

Technical info
(IMG:https://metalarea.org/images/spectrogram/2021_May/3957f82f25ed7549ca6c8da8b36721dd.png)
Input File: 01 The Greater Good (Live in Porto).mp3
Channels : 2
Sample Rate : 44100
Precision : 16-bit
Duration : 00:05:25.71 = 14363899 samples = 24428.4 CDDA sectors
File Size : 13.2M
Bit Rate : 323k
Sample Encoding: MPEG audio (layer I, II or III)
Comments :
Title=The Greater Good (Live in Porto)
Artist=Moonspell
Album=Cold Hands Seduction Vol. 226
Tracknumber=01/16
Year=2021
Genre=52



Register


Go to the top of the page
  Insert nick Quick quote
+Quote Post

Reply to this topicStart new topic
1 User(s) are reading this topic (1 Guests and 0 Anonymous Users)
0 Members:

 



- Lo-Fi Version Support form
Copyrights and abuse reports form
Time is now: 23rd October 2021 - 20:55:11