Welcome Guest ( Log In | Register )

> И неформату есть предел.

Рэп/хип-хоп/шансон/поп удаляются. Для них есть свои порталы.

 
Reply to this topicStart new topic
> Various Artists - Sonic Seducer: Cold Hands Seduction Vol. 227 [compilation] (2021), Various Gothic/Electro (D2225)
post May 20 2021, 19:28:39
Post #1

Мегаманьяк
***********
Group: Металариец
Posts: 1,736
Releases: 462
On Forums: 13 years 5 months
Thanks: 6757 time(s)
Ireland


(IMG:https://metalarea.org/images/audiocovers/2021_May/acov_tid351096_thumb.jpg)

*Artist: Various Artists
*Album: Sonic Seducer: Cold Hands Seduction Vol. 227 [compilation]
*Year: 2021
*Genre: Various Gothic/Electro
*Country: Many (IMG:https://metalarea.org/forum/style_images/flags/Many.png)
*Format: mp3@CBR320kbps
*Size: 166MB

Tracklist:
1. Kirlian Camera - Lobotomine 5
2. Skold - Dirty Horizon
3. Reach - The Law
4. Das Werk - Schneekönigin
5. Mechanical Moth - Stuck (Female)
6. No Trust In Dawn - Where Are You Now
7. Winterstille - Und Sie Tanzten
8. XXOt - Burn
9. Moaan Exis - Necessary Violence
10. Siamgda - Tribal Blood
11. Implant feat. Noemi Aurora - Phantom Pain
12. Digital Factor - I Am Dangerous
13. LMX - My Own Planet
14. Sabina Toll - La Valigia
15. 808 Dot Pop - Kelvin (4200)
16. Distoxia - Armadura De Clavos
17. Yura Yura - Lakrimal
******************************
Total playing time: 1:14:13

Technical info
(IMG:https://metalarea.org/images/spectrogram/2021_May/c447aab48ecd37e096e194ecbd16104f.png)
Input File: 10 Tribal Blood.mp3
Channels : 2
Sample Rate : 44100
Precision : 16-bit
Duration : 00:05:15.92 = 13931896 samples = 23693.7 CDDA sectors
File Size : 12.7M
Bit Rate : 323k
Sample Encoding: MPEG audio (layer I, II or III)
Comments :
Title=Tribal Blood
Artist=Siamgda
Album=Cold Hands Seduction Vol. 227
Tracknumber=10/17
Year=2021
Genre=50



Register


Go to the top of the page
  Insert nick Quick quote
+Quote Post

Reply to this topicStart new topic
1 User(s) are reading this topic (1 Guests and 0 Anonymous Users)
0 Members:

 



- Lo-Fi Version Support form
Copyrights and abuse reports form
Time is now: 20th October 2021 - 14:59:35