Welcome Guest ( Log In | Register )

> Nahaya - Vital Alchemy (2021), Melodic Death/Thrash Metal
post May 21 2021, 10:16:47
Post #1

Правь статус, ####!111
**************
Group: Металариец
Posts: 27,448
Releases: 19929
From: Г.Харьков
On Forums: 9 years 4 months
Thanks: 402401 time(s)
Unknown


(IMG:https://metalarea.org/images/audiocovers/2021_May/acov_tid351127_thumb.jpg)

*Artist: Nahaya
*Album: Vital Alchemy
*Year: 2021
*Genre: Melodic Death/Thrash Metal
*Country: United States (IMG:https://metalarea.org/forum/style_images/flags/United%20States.png)
*Format: mp3@CBR320kbps
*Size: 58MB

Tracklist:
1. Madness of Maenads 01:22
2. Deific Mask 03:42
3. Vital Alchemy 04:27
4. Incubator 04:46
5. Kali Yuga 03:26
6. Midnight Fidelio 03:22
7. Aghori Fires 04:03
******************************
Total playing time: 25:08




Extended info
Semir Özerkan Bass
See also: Æternal Requiem, Oceans of Slumber
Zachary Herber Drums
Daniel Abbott Guitars
Ryan Peters Guitars
Carl Elfin Ford Vocals


Technical info
(IMG:https://metalarea.org/images/spectrogram/2021_May/c454be48840dd220f41f332a5c57808e.png)
Input File: 07 - Aghori Fires.mp3
Channels : 2
Sample Rate : 44100
Precision : 16-bit
Duration : 00:04:03.00 = 10716300 samples = 18225 CDDA sectors
File Size : 9.81M
Bit Rate : 323k
Sample Encoding: MPEG audio (layer I, II or III)
Comments :
Title=Aghori Fires
Artist=Nahaya
Album=Vital Alchemy
Tracknumber=7
Year=2021-05-21
Discnumber=1



Register


Go to the top of the page
  Insert nick Quick quote
+Quote Post
 
Start new topic
Replies (1 - 3)
post May 22 2021, 09:03:28
Post #2

Old School Metal
**************
Group: Металариец
Posts: 4,039
Releases: 0
From: г. Минск
On Forums: 12 years 6 months
Thanks: 9612 time(s)
Belarus


Lossless: FLAC (tracks)
Register


Go to the top of the page
  Insert nick Quick quote
+Quote Post
post Jun 2 2021, 10:29:49
Post #3

Ъ
**************
Group: Металариец
Posts: 10,733
Releases: 9
On Forums: 12 years 8 months
Thanks: 2185 time(s)
Sweden


Третьесорт.
Go to the top of the page
  Insert nick Quick quote
+Quote Post
post Jul 21 2021, 11:03:21
Post #4

i listen to black metal
**************
Group: Металариец
Posts: 3,045
Releases: 138
From: Москва
On Forums: 14 years 9 months
Thanks: 2325 time(s)
Russian Federation


вокалисту с его внешностью кантри петь
Go to the top of the page
  Insert nick Quick quote
+Quote Post

Reply to this topicStart new topic
1 User(s) are reading this topic (1 Guests and 0 Anonymous Users)
0 Members:

 



- Lo-Fi Version Support form
Copyrights and abuse reports form
Time is now: 28th September 2021 - 07:48:17