Welcome Guest ( Log In | Register )

> Constant Nausea - Bezwzględność (2021), Black Metal
post May 21 2021, 10:59:46
Post #1

Правь статус, ####!111
**************
Group: Металариец
Posts: 27,436
Releases: 19916
From: Г.Харьков
On Forums: 9 years 4 months
Thanks: 401974 time(s)
Unknown


(IMG:https://metalarea.org/images/audiocovers/2021_May/acov_tid351128_thumb.jpg)

*Artist: Constant Nausea
*Album: Bezwzględność
*Year: 2021
*Genre: Black Metal
*Country: Poland (IMG:https://metalarea.org/forum/style_images/flags/Poland.png)
*Format: mp3@CBR320kbps
*Size: 71MB

Tracklist:
1. Smutna wizja nędzy ludzkiej 04:28
2. Konfesja trzewi 05:08
3. Bezwzględność 04:36
4. Ty też 04:56
5. Porażka oświecenia 05:00
6. Przedrefleksyjna jedność źródeł wszelkiego zła 06:36
******************************
Total playing time: 30:44



Technical info
(IMG:https://metalarea.org/images/spectrogram/2021_May/56093bb5fdc0a70fd132762bd56d80a4.png)
Input File: Constant Nausea - Bezwzględność - 06 Przedrefleksyjna jedność źródeł wszelkiego zła.mp3
Channels : 2
Sample Rate : 44100
Precision : 16-bit
Duration : 00:06:36.56 = 17488296 samples = 29742 CDDA sectors
File Size : 16.0M
Bit Rate : 323k
Sample Encoding: MPEG audio (layer I, II or III)
Comments :
Title=Przedrefleksyjna jedność źródeł wszelkiego zła
Artist=Constant Nausea
Album=Bezwzględność
Tracknumber=6
Year=2021



Register


Go to the top of the page
  Insert nick Quick quote
+Quote Post
 
Start new topic
Replies (1 - 1)
post May 23 2021, 20:06:13
Post #2

кручу наждак
**************
Group: Металариец
Posts: 5,134
Releases: 104
From: Самара
On Forums: 11 years 4 months
Thanks: 4122 time(s)
Russian Federation


Дикая и грубая блэчина. Очень годно.


Thanks:
Go to the top of the page
  Insert nick Quick quote
+Quote Post

Reply to this topicStart new topic
2 User(s) are reading this topic (2 Guests and 0 Anonymous Users)
0 Members:

 



- Lo-Fi Version Support form
Copyrights and abuse reports form
Time is now: 25th September 2021 - 23:07:07