Welcome Guest ( Log In | Register )

> 

Здесь релизы с живыми прямыми ссылками на lossless

> Disarm - Erode (2021), Death Metal (D9)
post May 22 2021, 15:08:03
Post #1

Шесть Литров
******
Group: Металариец
Posts: 546
Releases: 486
On Forums: 4 months 4 weeks
Thanks: 12148 time(s)
United States


(IMG:http://metalarea.org/images/audiocovers/2021_May/acov_tid351162_thumb.jpg)

*Artist: Disarm
*Album: Erode
*Year: 2021
*Genre: Death Metal
*Country: Poland (IMG:http://metalarea.org/forum/style_images/flags/Poland.png)
*Format: mp3@CBR320kbps
*Size: 118MB

Tracklist:
01. Whatever Doesn't Kill Me
02. Rely On Sickness
03. Controlled By Wrath
04. Face Me
05. Pulse Underneath
06. Erode
07. It Will Rather Hurt
08. Hysteria
09. A Drowning
10. The Pill Must Be Swallowed
11. Sorrow Would Be Better
12. Irreversible Process
13. Not Enough Force
******************************
Total playing time: 48:20



Technical info
(IMG:http://metalarea.org/images/spectrogram/2021_May/f31f9a0d8b7657e4978b3fdc3b3d180f.png)
Input File: 02. Rely On Sickness.mp3
Channels : 2
Sample Rate : 44100
Precision : 16-bit
Duration : 00:02:50.33 = 7511553 samples = 12774.8 CDDA sectors
File Size : 6.87M
Bit Rate : 323k
Sample Encoding: MPEG audio (layer I, II or III)
Comments :
Title=Rely On Sickness
Artist=Disarm
Album=ERODE
Tracknumber=2
Year=2021-05-19
Genre=Metal
Discnumber=1



Register


Go to the top of the page
  Insert nick Quick quote
+Quote Post
 
Start new topic
Replies (1 - 2)
post May 23 2021, 05:03:05
Post #2

hearer & reader
**************
Group: Металариец
Posts: 9,880
Releases: 173
From: Moscow
On Forums: 14 years 2 weeks
Thanks: 11206 time(s)
Russian Federation



https://music.yandex.ru/album/15756453
Go to the top of the page
  Insert nick Quick quote
+Quote Post
post May 23 2021, 11:52:11
Post #3

Old School Metal
**************
Group: Металариец
Posts: 4,030
Releases: 0
From: г. Минск
On Forums: 12 years 6 months
Thanks: 9595 time(s)
Belarus


Lossless: FLAC (tracks)
Register


Thanks:
Go to the top of the page
  Insert nick Quick quote
+Quote Post

Reply to this topicStart new topic
1 User(s) are reading this topic (1 Guests and 0 Anonymous Users)
0 Members:

 



- Lo-Fi Version Support form
Copyrights and abuse reports form
Time is now: 25th September 2021 - 23:57:29