Welcome Guest ( Log In | Register )

> И неформату есть предел.

Рэп/хип-хоп/шансон/поп удаляются. Для них есть свои порталы.

 
Reply to this topicStart new topic
> Temple - The Ashes Belong To You (2021), Dark Ambient/Drone (D15)
post May 22 2021, 15:27:55
Post #1

Правь статус, ####!111
**************
Group: Металариец
Posts: 2,013
Releases: 234
From: Omsk, Siberia
On Forums: 12 years 7 months
Thanks: 4723 time(s)
Russian Federation


(IMG:http://metalarea.org/images/audiocovers/2021_May/acov_tid351165_thumb.jpg)

*Artist: Temple
*Album: The Ashes Belong To You
*Year: 2021
*Genre: Dark Ambient/Drone
*Country: Australia (IMG:http://metalarea.org/forum/style_images/flags/Australia.png)
*Format: mp3@CBR320kbps
*Size: 175MB

Tracklist:
1. Random Tunnel 20:13
2. Apophenia 18:33
3. Near Perfect Horses 15:43
4. Ephemeral 17:16
5. I Cut The Sun 11:38
******************************
Total playing time: 1:23:24




Extended info
Released through Art As Catharsis Records and Bleeemo Music.

Line-up:
Brian O'Dwyer (Adam Simmons vs Brian O'Dwyer, Insufficient Parental Figure, Maps Of Tasmania, MNMM, Random Violence, Running With Scissors, Stoning [Aus], Sun Of Clark, Warpigs [Aus], Gelareh Pour's Garden (live), ZÖJ (live))
Grant Bissett


Technical info
(IMG:http://metalarea.org/images/spectrogram/2021_May/f5003307f4af838efd10daabfb931cce.png)
Input File: 04 Ephemeral.mp3
Channels : 2
Sample Rate : 44100
Precision : 16-bit
Duration : 00:17:16.26 = 45698890 samples = 77719.2 CDDA sectors
File Size : 41.6M
Bit Rate : 321k
Sample Encoding: MPEG audio (layer I, II or III)
Comments :
Title=Ephemeral
Artist=Temple
Album=The Ashes Belong To You
Tracknumber=4
Year=2021
Genre=Dark Ambient



Register


Go to the top of the page
  Insert nick Quick quote
+Quote Post

Reply to this topicStart new topic
1 User(s) are reading this topic (1 Guests and 0 Anonymous Users)
0 Members:

 



- Lo-Fi Version Support form
Copyrights and abuse reports form
Time is now: 23rd October 2021 - 21:53:21