Welcome Guest ( Log In | Register )

> Todesmarsch - Verschlingt Die Brut (2020), Black Metal (D4)
post May 22 2021, 23:14:26
Post #1

Пять Литров
*****
Group: Металариец
Posts: 435
Releases: 73
From: italy
On Forums: 13 years 2 months
Thanks: 1645 time(s)
Italy


(IMG:http://metalarea.org/images/audiocovers/2021_May/acov_tid351179_thumb.jpg)

*Artist: Todesmarsch
*Album: Verschlingt Die Brut
*Year: 2020
*Genre: Black Metal
*Country: Germany (IMG:http://metalarea.org/forum/style_images/flags/Germany.png)
*Format: mp3@CBR320kbps
*Size: 103MB

Tracklist:
1. Todesmarsch 4:50
2. Krieg 4:55
3. Im Reich Des Nebels 07:14
4. Söhne Der Pflicht 06:43
5. Der Erlöser II 05:28
6. Nur Dein Tod Bringt Uns Das Heil 06:08
7. Wotan Mit Uns 07:37
******************************
Total playing time: 42:55

(IMG:http://metalarea.org/images/youtube.png)

Technical info
(IMG:http://metalarea.org/images/spectrogram/2021_May/89fb3bff61e9831c4aeec9eb9db2c2ea.png)
Input File: 02 - Krieg.mp3
Channels : 2
Sample Rate : 44100
Precision : 16-bit
Duration : 00:04:55.05 = 13011529 samples = 22128.5 CDDA sectors
File Size : 12.6M
Bit Rate : 342k
Sample Encoding: MPEG audio (layer I, II or III)
Comments :
Title=Krieg
Artist=Todesmarsch
Album=...Verschlingt Die Brut
Tracknumber=2
Year=2020
Genre=Black Metal



Register


Go to the top of the page
  Insert nick Quick quote
+Quote Post
 
Start new topic
Replies (1 - 6)
post May 23 2021, 06:22:35
Post #2

Common dweller of hell
**************
Group: Металариец
Posts: 3,997
Releases: 12
From: Dnipro
On Forums: 13 years 2 months
Thanks: 1559 time(s)
Ukraine


Sie sind Faschisten
Lyrical themes: National Socialism
01. Марш смерти
02. Война
03. В царстве тумана
04. Сыны долга
05. Искупитель II
06. Только твоя смерть приносит нам спасение.
07. Вотан с нами


Go to the top of the page
  Insert nick Quick quote
+Quote Post
post May 23 2021, 15:30:52
Post #3

ZEHTAN!
******
Group: Металариец
Posts: 696
Releases: 32
From: Germany
On Forums: 15 years 6 months
Thanks: 1252 time(s)
Germany


yep...nazi bullshit!


Thanks:
(1) Occultas,
Go to the top of the page
  Insert nick Quick quote
+Quote Post
post May 23 2021, 16:06:39
Post #4

Литр
*
Group: Подсевший
Posts: 58
Releases: 0
On Forums: 9 months 3 weeks
Thanks: 47 time(s)
Germany


Очень хорошо, как и предыдущий выпуск. Полная поддержка.


Go to the top of the page
  Insert nick Quick quote
+Quote Post
post May 23 2021, 17:55:30
Post #5

Пять Литров
*****
Group: Металариец
Posts: 427
Releases: 18
On Forums: 8 years 2 weeks
Thanks: 761 time(s)
Iceland


Nice that this time i'm not the only one recognizing it. I'm only wondering, that no one until now came up with the typical: "No they're not. The lyrics...blablabla." excuse.
Maybe this time it's too obvious.
Go to the top of the page
  Insert nick Quick quote
+Quote Post
post May 23 2021, 18:14:06
Post #6

Девять Литров
*********
Group: Металариец
Posts: 931
Releases: 0
On Forums: 8 years 1 month
Thanks: 714 time(s)
Australia


QUOTE(Kvlt @ May 23 2021, 18:55:30) *
Nice that this time i'm not the only one recognizing it. I'm only wondering, that no one until now came up with the typical: "No they're not. The lyrics...blablabla." excuse.
Maybe this time it's too obvious.

Nobody gives a fuck.


Go to the top of the page
  Insert nick Quick quote
+Quote Post
post May 26 2021, 16:18:21
Post #7

0%Tolerance
**********
Group: Металариец
Posts: 1,293
Releases: 0
On Forums: 9 years 2 days
Thanks: 228 time(s)
Unknown


Слушал этот альбом какое-то время назад, может даже в прошлом году. Не помню точно. Что точно помню - классная работа.


Thanks:
(1) Andurr,
Go to the top of the page
  Insert nick Quick quote
+Quote Post

Reply to this topicStart new topic
1 User(s) are reading this topic (1 Guests and 0 Anonymous Users)
0 Members:

 



- Lo-Fi Version Support form
Copyrights and abuse reports form
Time is now: 18th September 2021 - 14:51:44