Welcome Guest ( Log In | Register )

> Releases Upload / Добавление релизов

Добавить релиз тут / Click here to add release
Рекомендованные обменники / Recommended file shares

> Vottovaara - Paluu (2021), Melodic Death/Folk Metal
post May 25 2021, 13:29:01
Post #1

Правь статус, ####!111
**************
Group: Металариец
Posts: 26,651
Releases: 19200
From: Г.Харьков
On Forums: 9 years 2 months
Thanks: 384062 time(s)
Unknown


(IMG:https://metalarea.org/images/audiocovers/2021_May/acov_tid351250_thumb.jpg)

*Artist: Vottovaara
*Album: Paluu
*Year: 2021
*Genre: Melodic Death/Folk Metal
*Country: Russian Federation (IMG:https://metalarea.org/forum/style_images/flags/Russian%20Federation.png)
*Format: mp3@CBR320kbps
*Size: 87MB

Tracklist:
01. Om Asato Ma Sat Gamaya 07:02
02. Tie karjalaisten maalla 05:54
03. Vottovaara 05:07
04. Paluu (instr.) 05:36
05. Kiitollisuuden kalma-vaaran 04:52
06. Vottovaara (demo 2017) 05:14
07. Tie karjalaisten maalla (demo 2017) 03:31
******************************
Total playing time: 37:16

Preview 1


Technical info
(IMG:https://metalarea.org/images/spectrogram/2021_May/2cdf73ec063f57349bf273749fed84ba.png)
Input File: 05 - Kiitollisuuden Kalma-Vaaran.mp3
Channels : 2
Sample Rate : 44100
Precision : 16-bit
Duration : 00:04:49.00 = 12744900 samples = 21675 CDDA sectors
File Size : 11.8M
Bit Rate : 326k
Sample Encoding: MPEG audio (layer I, II or III)
Comments :
Title=Kiitollisuuden Kalma-Vaaran
Artist=Vottovaara
Album=Paluu
Tracknumber=5
Year=2021-05-25
Genre=Metal
Discnumber=1



Register


Go to the top of the page
  Insert nick Quick quote
+Quote Post
 
Start new topic
Replies (1 - 1)
post Jun 12 2021, 13:00:43
Post #2

Литр
*
Group: Подсевший
Posts: 81
Releases: 0
On Forums: 11 years 1 month
Thanks: 19 time(s)
Unknown


Отличная вещь. Очень мелодично, класснае клавишные партии, сыгранно и сведено отлично.

Только странно что на финнском, даже мало какой Финн на финском поёт а тут... (IMG:style_emoticons/default/13.gif)
Go to the top of the page
  Insert nick Quick quote
+Quote Post

Reply to this topicStart new topic
1 User(s) are reading this topic (1 Guests and 0 Anonymous Users)
0 Members:

 



- Lo-Fi Version Support form
Copyrights and abuse reports form
Time is now: 25th July 2021 - 02:43:25