Welcome Guest ( Log In | Register )

> Thronum Vrondor - Dies Tenebrosa Sicut Nox (2021), Black Metal (D4)
post May 27 2021, 14:01:52
Post #1

Правь статус, ####!111
**************
Group: Металариец
Posts: 27,429
Releases: 19912
From: Г.Харьков
On Forums: 9 years 4 months
Thanks: 401546 time(s)
Unknown


(IMG:https://metalarea.org/images/audiocovers/2021_May/acov_tid351352_thumb.jpg)

*Artist: Thronum Vrondor
*Album: Dies Tenebrosa Sicut Nox
*Year: 2021
*Genre: Black Metal
*Country: Belgium (IMG:https://metalarea.org/forum/style_images/flags/Belgium.png)
*Format: mp3@CBR320kbps
*Size: 84MB

Tracklist:
1. To Eternal Fire 06:18
2. Odium Humanis Generis 03:17
3. Worms 04:25
4. Ravenous Cult 04:13
5. The Wolf Must Roam Free 05:53
6. To Pierce the Heart of Lions 05:31
7. Cleanse This World of Filth 02:49
8. What Grace Is There Left to Fall From 04:33
******************************
Total playing time: 36:59




Extended info
Crygh Drums, Vocals
Vrondor Guitars, Bass
SvN Vocals, Lyrics


Technical info
(IMG:https://metalarea.org/images/spectrogram/2021_May/6de5f1ef55dcb90dd377393f5ee9fe98.png)
Input File: 06 - To Pierce the Heart of Lions.mp3
Channels : 2
Sample Rate : 44100
Precision : 16-bit
Duration : 00:05:31.83 = 14633615 samples = 24887.1 CDDA sectors
File Size : 13.3M
Bit Rate : 320k
Sample Encoding: MPEG audio (layer I, II or III)
Comments :
Title=To Pierce the Heart of Lions
Artist=Thronum Vrondor
Album=Dies Tenebrosa Sicut Nox
Tracknumber=6
Year=2021



Register


Go to the top of the page
  Insert nick Quick quote
+Quote Post
 
Start new topic
Replies (1 - 2)
post May 28 2021, 07:26:05
Post #2

Common dweller of hell
**************
Group: Металариец
Posts: 4,012
Releases: 12
From: Dnipro
On Forums: 13 years 2 months
Thanks: 1566 time(s)
Ukraine


Thronum Vrondor - Dies Tenebrosa Sicut Nox (Full Album Stream)


Thanks:
(1) Occultas,
Go to the top of the page
  Insert nick Quick quote
+Quote Post
post Jun 3 2021, 16:06:46
Post #3

Common dweller of hell
**************
Group: Металариец
Posts: 4,012
Releases: 12
From: Dnipro
On Forums: 13 years 2 months
Thanks: 1566 time(s)
Ukraine


Однозначно заслуживающий внимания альбом, зацепил себе лося.
Go to the top of the page
  Insert nick Quick quote
+Quote Post

Reply to this topicStart new topic
2 User(s) are reading this topic (2 Guests and 0 Anonymous Users)
0 Members:

 



- Lo-Fi Version Support form
Copyrights and abuse reports form
Time is now: 25th September 2021 - 00:50:54