Welcome Guest ( Log In | Register )

> The Sundial - Deep Blue Phoenix (2021), Symphonic/Gothic Metal (D4)
post May 27 2021, 16:21:41
Post #1

Маньяк
**********
Group: Металариец
Posts: 1,094
Releases: 934
On Forums: 1 year 7 months
Thanks: 24900 time(s)
United States


(IMG:http://metalarea.org/images/audiocovers/2021_May/acov_tid351363_thumb.jpg)

*Artist: The Sundial
*Album: Deep Blue Phoenix
*Year: 2021
*Genre: Symphonic/Gothic Metal
*Country: Russian Federation (IMG:http://metalarea.org/forum/style_images/flags/Russian%20Federation.png)
*Format: mp3@CBR320kbps
*Size: 144MB

Tracklist:
01. Intro: Human 04:02
02. Deep Blue Phoenix 07:18
03. Child From The Mist 04:38
04. Sky Burns 04:32
05. With My Friend 05:32
06. War 06:03
07. Jerusalem 04:08
08. Prayer 06:18
09. Tack Your Freedom 07:12
10. Give It A Name 07:59
******************************
Total playing time: 57:42



Technical info
(IMG:http://metalarea.org/images/spectrogram/2021_May/5ceb53519e7eccb9c1ff5d3f8b16b3cc.png)
Input File: 02. Deep Blue Phoenix.mp3
Channels : 2
Sample Rate : 44100
Precision : 16-bit
Duration : 00:07:18.00 = 19315800 samples = 32850 CDDA sectors
File Size : 17.6M
Bit Rate : 321k
Sample Encoding: MPEG audio (layer I, II or III)
Comments :
Title=Deep Blue Phoenix
Artist=The Sundial
Album=Deep Blue Phoenix
Tracknumber=02/10
Year=2021
Genre=Metal



Register


Go to the top of the page
  Insert nick Quick quote
+Quote Post
 
Start new topic
Replies (1 - 5)
post May 29 2021, 13:37:41
Post #2

hearer & reader
**************
Group: Металариец
Posts: 10,445
Releases: 225
From: Moscow
On Forums: 15 years 2 months
Thanks: 12866 time(s)
Russian Federation


Register


Thanks:
(2) Woosad, wreak,
Go to the top of the page
  Insert nick Quick quote
+Quote Post
post May 31 2021, 07:53:50
Post #3

Шесть Литров
******
Group: Металариец
Posts: 664
Releases: 0
From: Москва
On Forums: 16 years 1 month
Thanks: 145 time(s)
Russian Federation


Сказка о потерянном времени, лучше бы на завод пошли.
Go to the top of the page
  Insert nick Quick quote
+Quote Post
post Jul 27 2021, 05:36:48
Post #4

i listen to black metal
**************
Group: Металариец
Posts: 3,461
Releases: 144
From: Москва
On Forums: 15 years 11 months
Thanks: 2464 time(s)
Russian Federation


все выросли давно и уже не хвалят прошлые работы,а по сути проходняк
Go to the top of the page
  Insert nick Quick quote
+Quote Post
post Aug 3 2021, 09:18:17
Post #5

Ъ
**************
Group: Металариец
Posts: 11,110
Releases: 9
On Forums: 13 years 10 months
Thanks: 2237 time(s)
Sweden


Третьесорт.


Thanks:
Go to the top of the page
  Insert nick Quick quote
+Quote Post
post Aug 5 2021, 15:42:21
Post #6

Два Литра
**
Group: Завсегдатай
Posts: 141
Releases: 1
On Forums: 13 years 5 months
Thanks: 104 time(s)
Russian Federation


Написал им в вк, мол ребята, что со звуком? Как будто демо запись из начала двухтысячных и акцент у вокалистки дикий и за 13 лет с последнего альбома прогресса нет в произношении, а альбом ничем не запомнился по сравнению с 2006 и 2008, которые сочно звучат и прописаны в разы лучше 2021-го года, видео на ютьюбе свежее имеет сомнительный успех (96 дизов, 61 палец вверх) ...Меня забанили у них и у вокалистки на странице "за оскорбления участников" Ржу просто, ни одного слова им не сказал оскорбительного, лишь конструктивная критика))) Вот так)) И концерты они почему то только за бугром дают и только в Калининграде...
Go to the top of the page
  Insert nick Quick quote
+Quote Post

Reply to this topicStart new topic
2 User(s) are reading this topic (2 Guests and 0 Anonymous Users)
0 Members:

 



- Lo-Fi Version Support form
Copyrights and abuse reports form
Time is now: 3rd December 2022 - 16:47:28