Welcome Guest ( Log In | Register )

> Mortiferuz - Sjelferd (2021), Black Metal
post May 28 2021, 16:29:15
Post #1

Шесть Литров
******
Group: Металариец
Posts: 546
Releases: 486
On Forums: 4 months 4 weeks
Thanks: 12134 time(s)
United States


(IMG:http://metalarea.org/images/audiocovers/2021_May/acov_tid351406_thumb.jpg)

*Artist: Mortiferuz
*Album: Sjelferd
*Year: 2021
*Genre: Black Metal
*Country: Norway (IMG:http://metalarea.org/forum/style_images/flags/Norway.png)
*Format: mp3@CBR320kbps
*Size: 125MB

Tracklist:
01. Svunnen Tid Alejandro Peralta
02. Skoddelagt
03. Sorgtungt
04. Gate Of Shadows
05. Untrodden Path-Kingdom Of Sorrow
06. Shades Of Oblivion
07. Trolldom
******************************
Total playing time: 49:57



Technical info
(IMG:http://metalarea.org/images/spectrogram/2021_May/02474bdefc469e94cdba0aad5959d04b.png)
Input File: 02. Skoddelagt.mp3
Channels : 2
Sample Rate : 44100
Precision : 16-bit
Duration : 00:05:20.65 = 14140533 samples = 24048.5 CDDA sectors
File Size : 12.9M
Bit Rate : 321k
Sample Encoding: MPEG audio (layer I, II or III)
Comments :
Title=Skoddelagt
Artist=Mortiferuz
Album=Sjelferd
Tracknumber=2
Year=2021-05-25
Genre=Metal
Discnumber=1



Register


Go to the top of the page
  Insert nick Quick quote
+Quote Post
 
Start new topic
Replies (1 - 2)
post May 29 2021, 22:05:32
Post #2

Два Литра
**
Group: Завсегдатай
Posts: 128
Releases: 5
On Forums: 3 years 6 months
Thanks: 329 time(s)
Unknown


FLAC version in honor of his Crappiness the Poop:

Register


Thanks:
Go to the top of the page
  Insert nick Quick quote
+Quote Post
post May 30 2021, 21:45:46
Post #3

Common dweller of hell
**************
Group: Металариец
Posts: 4,012
Releases: 12
From: Dnipro
On Forums: 13 years 2 months
Thanks: 1566 time(s)
Ukraine






Thanks:
(1) nomadgg1,
Go to the top of the page
  Insert nick Quick quote
+Quote Post

Reply to this topicStart new topic
2 User(s) are reading this topic (2 Guests and 0 Anonymous Users)
0 Members:

 



- Lo-Fi Version Support form
Copyrights and abuse reports form
Time is now: 25th September 2021 - 02:17:32