Welcome Guest ( Log In | Register )

Объявления

* gmail.com упорно продолжает считать почту с нас "unsolicited" и отбивает в том числе и письма активации, поэтому просьба использовать альтернативные почтовые ящики.
------------
* gmail.com continues reject all mail from us as "unsolicited" (activation mails too) therefore please use alternate mail servers.
> Disentomb - Broken Under Your Symbol Of Atonement [single] (2021), Brutal Death Metal (D)
post May 28 2021, 21:15:31
Post #1

н е д е л и м о е
**************
Group: Металариец
Posts: 2,472
Releases: 231
On Forums: 12 years 7 months
Thanks: 5160 time(s)
Russian Federation


(IMG:http://metalarea.org/images/audiocovers/2021_May/acov_tid351424_thumb.jpg)

*Artist: Disentomb
*Album: Broken Under Your Symbol Of Atonement [single]
*Year: 2021
*Genre: Brutal Death Metal
*Country: Australia (IMG:http://metalarea.org/forum/style_images/flags/Australia.png)
*Format: mp3@CBR320kbps
*Size: 11MB

Tracklist:
1. Broken Under Your Symbol Of Atonement 04:51
******************************
Total playing time: 4:51



Technical info
(IMG:http://metalarea.org/images/spectrogram/2021_May/183ea6a85ae4f1f53351ea6d58903cbe.png)
Input File: 01 - Broken Under Your Symbol Of Atonement.mp3
Channels : 2
Sample Rate : 44100
Precision : 16-bit
Duration : 00:04:51.39 = 12850079 samples = 21853.9 CDDA sectors
File Size : 11.7M
Bit Rate : 320k
Sample Encoding: MPEG audio (layer I, II or III)



Register


Go to the top of the page
  Insert nick Quick quote
+Quote Post
 
Start new topic
Replies (1 - 3)
post May 29 2021, 08:36:37
Post #2

спасибо сыну за пельмени
**************
Group: Металариец
Posts: 2,790
Releases: 0
From: Україна
On Forums: 15 years 4 months
Thanks: 2506 time(s)
Ukraine




Thanks:
Go to the top of the page
  Insert nick Quick quote
+Quote Post
post May 31 2021, 20:54:21
Post #3

a caress of pale light
**************
Group: Металариец
Posts: 8,659
Releases: 13
On Forums: 14 years 6 months
Thanks: 4440 time(s)
Unknown


Прикольно. Но надеюсь не весь новый релиз будет такой.


Thanks:
(1) Occultas,
Go to the top of the page
  Insert nick Quick quote
+Quote Post
post Sep 22 2023, 11:31:18
Post #4

Правь статус, ####!111
**************
Group: Металариец
Posts: 4,841
Releases: 29
From: Holland
On Forums: 17 years 10 months
Thanks: 1942 time(s)
Netherlands


Черт, а меня этот трэк дичайше распер. Еще более Ulcerate-ово, чем их альбом.
Есть огрехи в звуке, суховат, но в остальном, бомбически!


Thanks:
(1) Occultas,
Go to the top of the page
  Insert nick Quick quote
+Quote Post

Reply to this topicStart new topic
2 User(s) are reading this topic (2 Guests and 0 Anonymous Users)
0 Members:

 



- Lo-Fi Version Support form
Copyrights and abuse reports form
Time is now: 28th May 2024 - 02:29:31