Welcome Guest ( Log In | Register )

> Drakon Ho Megas - Drakon Ho Megas (2021), Black Metal
post May 31 2021, 22:13:15
Post #1

Malum dominus omnium
****
Group: Металариец
Posts: 370
Releases: 279
On Forums: 2 years 5 months
Thanks: 6135 time(s)
Vatican City


(IMG:https://metalarea.org/images/audiocovers/2021_May/acov_tid351552_thumb.jpg)

*Artist: Drakon Ho Megas
*Album: Drakon Ho Megas
*Year: 2021
*Genre: Black Metal
*Country: Greece (IMG:https://metalarea.org/forum/style_images/flags/Greece.png)
*Format: mp3@CBR320kbps
*Size: 78MB

Tracklist:
1. ΓΕΝΕΣΙΣ 01:53
2. ΑΠΟ ΚΑΤΑΒΟΛΗΣ ΧΑΟΣ 05:04
3. ΛΙΛΙΘ (H μήτρα του σκότους) 05:00
4. ΛΕΒΙΑΘΑΝ 05:18
5. Kain 05:50
6. ΔΡΑΚΩΝ Ο ΜΕΓΑΣ 07:26
7. ΒΑΒΥΛΩΝ (Η μεγάλη πόρνη) 03:13
******************************
Total playing time: 33:44


(IMG:https://metalarea.org/images/youtube.png)

Metal Archives

Technical info
(IMG:https://metalarea.org/images/spectrogram/2021_May/e714e549f205f143f3893bc8bd75103d.png)
Input File: Drakon Ho Megas -1 Genesis - ΓΕΝΕΣΙΣ.mp3
Channels : 2
Sample Rate : 48000
Precision : 16-bit
Duration : 00:01:50.22 = 5290368 samples ~ 8266.2 CDDA sectors
File Size : 4.41M
Bit Rate : 320k
Sample Encoding: MPEG audio (layer I, II or III)
Comments :
Title=Genesis / ΓΕΝΕΣΙΣ
Artist=Drakon Ho Megas
Album=Drakon Ho Megas
Tracknumber=1
Year=2021
Genre=Black Metal



Register


Go to the top of the page
  Insert nick Quick quote
+Quote Post
 
Start new topic
Replies (1 - 3)
post Jun 9 2021, 08:02:59
Post #2

Common dweller of hell
**************
Group: Металариец
Posts: 4,343
Releases: 12
From: Dnipro
On Forums: 14 years 1 month
Thanks: 1721 time(s)
Ukraine


Очень не плохая гречка, все по классике, проблема одна, слабый уровень записи.
Go to the top of the page
  Insert nick Quick quote
+Quote Post
post Aug 4 2022, 12:06:03
Post #3

Group: Подсевший
Posts: 37
Releases: 0
On Forums: 15 years 1 week
Thanks: 1 time(s)
Ukraine


Замечательные греки. Звука только чуть добавить - и огонь.
Go to the top of the page
  Insert nick Quick quote
+Quote Post
post Aug 5 2022, 21:41:04
Post #4

Три Литра
***
Group: Завсегдатай
Posts: 284
Releases: 0
From: Zürich
On Forums: 1 year 2 months
Thanks: 161 time(s)
Switzerland


Третий и шестой треки понравились, на остальных есть неплохие моменты, но в-целом пока сыровато.
Go to the top of the page
  Insert nick Quick quote
+Quote Post

Reply to this topicStart new topic
2 User(s) are reading this topic (2 Guests and 0 Anonymous Users)
0 Members:

 



- Lo-Fi Version Support form
Copyrights and abuse reports form
Time is now: 15th August 2022 - 22:10:47