Welcome Guest ( Log In | Register )

Объявления

* gmail.com упорно продолжает считать почту с нас "unsolicited" и отбивает в том числе и письма активации, поэтому просьба использовать альтернативные почтовые ящики.
------------
* gmail.com continues reject all mail from us as "unsolicited" (activation mails too) therefore please use alternate mail servers.
> Typhonian - The Cosmic Pendulum Of Time [ep] (2021), Old School Death Metal
post Jun 1 2021, 01:23:43
Post #1

Правь статус, ####!111
**************
Group: Металариец
Posts: 35,995
Releases: 26829
From: Г.Харьков
On Forums: 12 years 3 weeks
Thanks: 581875 time(s)
Ukraine


(IMG:https://metalarea.org/images/audiocovers/2021_Jun/acov_tid351559_thumb.jpg)

*Artist: Typhonian
*Album: The Cosmic Pendulum Of Time [ep]
*Year: 2021
*Genre: Old School Death Metal
*Country: Germany (IMG:https://metalarea.org/forum/style_images/flags/Germany.png)
*Format: mp3@CBR320kbps
*Size: 67MB

Tracklist:
01. Dismal Dreams of Lives Forgotten
02. Throne of Deceit
03. Disembodied
04. Forever in Misery
05. Hammer of the Heretics
06. On Primordial Pathways
07. The Cosmic Pendulum of Time
******************************
Total playing time: 29:12





Extended info
Thanatos Drums
Prometheus Guitars
Typhon Guitars, Orchestration
M.W. Styrum Vocals
Charybdis Bass


Technical info
(IMG:https://metalarea.org/images/spectrogram/2021_Jun/200d46da56e594be8237eace703b68cd.png)
Input File: 07 - The Cosmic Pendulum of Time.mp3
Channels : 2
Sample Rate : 44100
Precision : 16-bit
Duration : 00:06:45.00 = 17860500 samples = 30375 CDDA sectors
File Size : 16.3M
Bit Rate : 323k
Sample Encoding: MPEG audio (layer I, II or III)
Comments :
Title=The Cosmic Pendulum of Time
Artist=Typhonian
Album=The Cosmic Pendulum of Time
Tracknumber=7
Year=2021-06-01
Genre=Metal
Discnumber=1



Register


Go to the top of the page
  Insert nick Quick quote
+Quote Post
 
Start new topic
Replies (1 - 6)
post Jun 2 2021, 15:53:57
Post #2

Два Литра
**
Group: Завсегдатай
Posts: 152
Releases: 0
On Forums: 3 years 1 month
Thanks: 58 time(s)
Unknown


То , что это не Old School Death Metal указывает всего лишь то , что такой стиль не с чем сравнить раньше.
Это нью-вэйв Deutschland Old School Death Metal.
Последние лет пять надо плыть .
В музее жизни отсутствия черты характера , этот альбом в комнате отсутствия Гордости. Это Загадка.
Сразу на первое место в альбом года.
Без пафоса.
Без впечатлительности.
Я шлю вам подарок .
Но свиньи даже каждый последующий желудь едят как новое блюдо.
Go to the top of the page
  Insert nick Quick quote
+Quote Post
post Jun 2 2021, 16:31:40
Post #3

Old School Metal
**************
Group: Металариец
Posts: 4,773
Releases: 0
From: г. Минск
On Forums: 15 years 2 months
Thanks: 13942 time(s)
Belarus


Lossless: FLAC (tracks)
Register


Go to the top of the page
  Insert nick Quick quote
+Quote Post
post Jun 2 2021, 22:47:51
Post #4

Crush The Enemies
**************
Group: Металариец
Posts: 4,337
Releases: 0
From: Moscow
On Forums: 14 years 8 months
Thanks: 2818 time(s)
Russian Federation



ПоЖЖЖирнел саунд в отличии от дебютного полноформата - стал более глубинным и продуманным с отличной подачей вокала!

P.S УДАРНО-ШКВАЛЬНЫЙ релиз выдали немцы!!! (IMG:style_emoticons/default/dwarf-1.gif) (IMG:style_emoticons/default/dwarf-1.gif) (IMG:style_emoticons/default/dwarf-1.gif)


Go to the top of the page
  Insert nick Quick quote
+Quote Post
post Jun 2 2021, 23:00:26
Post #5

Два Литра
**
Group: Завсегдатай
Posts: 152
Releases: 0
On Forums: 3 years 1 month
Thanks: 58 time(s)
Unknown


ЦИТАТА(defamer666 @ Jun 2 2021, 22:47:51) *
ПоЖЖЖирнел саунд в отличии от дебютного полноформата - стал более глубинным и продуманным с отличной подачей вокала!

P.S УДАРНО-ШКВАЛЬНЫЙ релиз выдали немцы!!! (IMG:style_emoticons/default/dwarf-1.gif) (IMG:style_emoticons/default/dwarf-1.gif) (IMG:style_emoticons/default/dwarf-1.gif)


Даже ты вернулся . Рад безмерно. Пока о нас помнят , мы живы . (IMG:style_emoticons/default/metaler.gif)


Go to the top of the page
  Insert nick Quick quote
+Quote Post
post Jun 2 2021, 23:04:58
Post #6

Crush The Enemies
**************
Group: Металариец
Posts: 4,337
Releases: 0
From: Moscow
On Forums: 14 years 8 months
Thanks: 2818 time(s)
Russian Federation


ЦИТАТА(metamfer @ 3rd June 2021 - 02:00:26) *
Даже ты вернулся . Рад безмерно. Пока о нас помнят , мы живы


Я никуда не уходил (IMG:style_emoticons/default/metaler.gif) БРАТИШКА !!! (IMG:style_emoticons/default/metaler.gif)


Go to the top of the page
  Insert nick Quick quote
+Quote Post
post Jun 3 2021, 10:19:51
Post #7

0%Tolerance
**************
Group: Металариец
Posts: 2,987
Releases: 0
On Forums: 11 years 8 months
Thanks: 568 time(s)
Unknown


Слегонца причёсанный, качественный мясной продукт.
Go to the top of the page
  Insert nick Quick quote
+Quote Post

Reply to this topicStart new topic
2 User(s) are reading this topic (2 Guests and 0 Anonymous Users)
0 Members:

 



- Lo-Fi Version Support form
Copyrights and abuse reports form
Time is now: 30th May 2024 - 23:58:54