Welcome Guest ( Log In | Register )

> Likferd - Watchtowers Of Anticosmos (2021), Black Metal (D4)
post Jun 2 2021, 19:41:35
Post #1

Malum dominus omnium
****
Group: Металариец
Posts: 370
Releases: 279
On Forums: 1 year 7 months
Thanks: 5827 time(s)
Vatican City


(IMG:https://metalarea.org/images/audiocovers/2021_Jun/acov_tid351618_thumb.jpg)

*Artist: Likferd
*Album: Watchtowers Of Anticosmos
*Year: 2021
*Genre: Black Metal
*Country: Russian Federation (IMG:https://metalarea.org/forum/style_images/flags/Russian%20Federation.png)
*Format: mp3@CBR320kbps
*Size: 98MB

Tracklist:
1. Hymn of the Tower 01:48
2. Ancient Pagan Blasphemy 06:06
3. Watchtowers of Anticosmos 04:58
4. Flames Deep in the Night 05:42
5. Halls of Ice 05:18
6. Night Monument 06:44
7. Death to Odin 06:28
8. I Sing My Songs With the Wolves 05:12
******************************
Total playing time: 42:16

(IMG:https://metalarea.org/images/youtube.png)
Metal Archives


Technical info
(IMG:https://metalarea.org/images/spectrogram/2021_Jun/75662e30c0d9839f539b781ed80c34b6.png)
Input File: Likferd - 1 Hymn of the Tower.mp3
Channels : 2
Sample Rate : 44100
Precision : 16-bit
Duration : 00:01:48.20 = 4771664 samples = 8115.07 CDDA sectors
File Size : 4.33M
Bit Rate : 320k
Sample Encoding: MPEG audio (layer I, II or III)
Comments :
Title=Hymn of the Tower
Artist=Likferd
Album=Watchtowers of Anticosmos
Tracknumber=1
Year=2021
Genre=Black Metal



Register


Go to the top of the page
  Insert nick Quick quote
+Quote Post
 
Start new topic
Replies (1 - 6)
post Jun 3 2021, 16:58:00
Post #2

**************
Group: Металариец
Posts: 2,739
Releases: 14
From: Казань
On Forums: 12 years 1 week
Thanks: 3823 time(s)
Russian Federation


Тухло (IMG:style_emoticons/default/21.gif) Бэндкаповщина накатала нихилую портянку в описании, подобно спичу афериста продажника из салонов сотовой связи. Ancient Frost уже в прошлом...
Аудитория понятна, акценты расставлены.
А мне здесь делать нечего


Thanks:
Go to the top of the page
  Insert nick Quick quote
+Quote Post
post Jun 3 2021, 17:37:53
Post #3

Правь статус, ####!111
**************
Group: Металариец
Posts: 49,218
Releases: 869
On Forums: 12 years 3 months
Thanks: 44693 time(s)
Russian Federation


ЦИТАТА(sethurius @ Jun 3 2021, 19:58:00) *
Тухло (IMG:style_emoticons/default/21.gif) Бэндкаповщина накатала нихилую портянку в описании, подобно спичу афериста продажника из салонов сотовой связи. Ancient Frost уже в прошлом...
Аудитория понятна, акценты расставлены.
А мне здесь делать нечего


А че конкретно изменилось по сравнению с Фростом?
Go to the top of the page
  Insert nick Quick quote
+Quote Post
post Jun 3 2021, 17:50:23
Post #4

**************
Group: Металариец
Posts: 2,739
Releases: 14
From: Казань
On Forums: 12 years 1 week
Thanks: 3823 time(s)
Russian Federation


ЦИТАТА(vosmidesijatye @ Jun 3 2021, 19:37:53) *
А че конкретно изменилось


Поверь мне на слово
Go to the top of the page
  Insert nick Quick quote
+Quote Post
post Jun 3 2021, 18:05:37
Post #5

Far Away From the Sun
**************
Group: Металариец
Posts: 2,048
Releases: 18
On Forums: 11 years 9 months
Thanks: 4308 time(s)
Russian Federation


ЦИТАТА(vosmidesijatye @ Jun 3 2021, 19:37:53) *
А че конкретно изменилось по сравнению с Фростом?

Имхо, прибавилось похожести на ранний Emperor за счёт эпизодических клавишных, а так - тот же почерк, что и на "Ancient Frost".
Хороший релиз. Специально за ним бегать не стану, конечно, но при случае взял бы в коллекцию.


Thanks:
Go to the top of the page
  Insert nick Quick quote
+Quote Post
post Jun 4 2021, 03:51:46
Post #6

кручу наждак
**************
Group: Металариец
Posts: 5,134
Releases: 104
From: Самара
On Forums: 11 years 4 months
Thanks: 4122 time(s)
Russian Federation


Отличный альбом, как и прошлый.


Thanks:
Go to the top of the page
  Insert nick Quick quote
+Quote Post
post Jun 4 2021, 09:54:36
Post #7

Ледоруб
**************
Group: Металариец
Posts: 28,789
Releases: 0
From: Санкт-Петербург
On Forums: 12 years 2 weeks
Thanks: 10362 time(s)
Russian Federation


ЦИТАТА(sethurius @ 3rd June 2021 - 19:50:23) *
Поверь мне на слово

Странный ответ.
Go to the top of the page
  Insert nick Quick quote
+Quote Post

Reply to this topicStart new topic
2 User(s) are reading this topic (2 Guests and 0 Anonymous Users)
0 Members:

 



- Lo-Fi Version Support form
Copyrights and abuse reports form
Time is now: 25th September 2021 - 21:58:45