Welcome Guest ( Log In | Register )

> Inhuman Condition - Rat°God (2021), Death/Thrash Metal
post Jun 3 2021, 11:07:13
Post #1

Шесть Литров
******
Group: Металариец
Posts: 545
Releases: 485
On Forums: 4 months 3 weeks
Thanks: 12098 time(s)
United States


(IMG:http://metalarea.org/images/audiocovers/2021_Jun/acov_tid351632_thumb.jpg)

*Artist: Inhuman Condition
*Album: Rat°God
*Year: 2021
*Genre: Death/Thrash Metal
*Country: United States (IMG:http://metalarea.org/forum/style_images/flags/United%20States.png)
*Format: mp3@CBR320kbps
*Size: 85MB

Tracklist:
01. Euphoriphobia
02. The Neck Step
03. Planetary Paroxysm
04. Killing Pace
05. Gravebound
06. Tyrantula
07. Rat°God
08. Crown Of Mediocrity
09. Fait Accompli
******************************
Total playing time: 32:43



Technical info
(IMG:http://metalarea.org/images/spectrogram/2021_Jun/202c1760bc6cb3b2840504b9c30ba570.png)
Input File: 02. The Neck Step.mp3
Channels : 2
Sample Rate : 44100
Precision : 16-bit
Duration : 00:03:41.12 = 9751172 samples = 16583.6 CDDA sectors
File Size : 8.92M
Bit Rate : 323k
Sample Encoding: MPEG audio (layer I, II or III)
Comments :
Title=The Neck Step
Artist=Inhuman Condition
Album=Rat God
Tracknumber=2
Year=2021-06-04
Genre=Rock
Discnumber=1



Register


Go to the top of the page
  Insert nick Quick quote
+Quote Post
 
Start new topic
Replies (1 - 7)
post Jun 4 2021, 09:28:39
Post #2

Совки, гулаги, дефициты
***********
Group: Металариец
Posts: 1,762
Releases: 0
From: Беларусь, Минск
On Forums: 14 years 2 months
Thanks: 889 time(s)
Belarus


Это ж Massacre.


Thanks:
Go to the top of the page
  Insert nick Quick quote
+Quote Post
post Jun 5 2021, 08:00:53
Post #3

Маньяк
**********
Group: Металариец
Posts: 1,136
Releases: 1
From: APATIN, SERBIA, АПАТИН, СЕРБИЯ
On Forums: 13 years 10 months
Thanks: 2680 time(s)



Flac

Register


Go to the top of the page
  Insert nick Quick quote
+Quote Post
post Jun 6 2021, 11:19:21
Post #4

0%Tolerance
**********
Group: Металариец
Posts: 1,301
Releases: 0
On Forums: 9 years 3 days
Thanks: 229 time(s)
Unknown


Годный патлотряс.
Go to the top of the page
  Insert nick Quick quote
+Quote Post
post Jun 8 2021, 11:46:42
Post #5

Добрейшей души Мегаманьяк
***********
Group: Металариец
Posts: 1,905
Releases: 0
From: Bashkortostan, Өфө
On Forums: 13 years 7 months
Thanks: 933 time(s)
Russian Federation


Так, баловство у Terry Butler'а вышло. А с этой MASSACRE прям сантабарбара какая-то.


Go to the top of the page
  Insert nick Quick quote
+Quote Post
post Jun 9 2021, 04:53:22
Post #6

кручу наждак
**************
Group: Металариец
Posts: 5,123
Releases: 104
From: Самара
On Forums: 11 years 4 months
Thanks: 4113 time(s)
Russian Federation


Ух ты, старая школа дет-метала, да еще с нормальным звуком. Интересный артефакт.
Обложка тоже по олдскулу - демонический Ивар Калныньш в роли Брюса Кэмпбелла.


Thanks:
Go to the top of the page
  Insert nick Quick quote
+Quote Post
post Jun 23 2021, 10:36:25
Post #7

добрый мизантроп
**************
Group: Металариец
Posts: 2,368
Releases: 1
From: Менск
On Forums: 10 years 10 months
Thanks: 1075 time(s)
Madagascar


Masterpiece DM 10/10


Thanks:
(1) Occultas,
Go to the top of the page
  Insert nick Quick quote
+Quote Post
post Jul 23 2021, 18:02:16
Post #8

Три Литра
***
Group: Завсегдатай
Posts: 299
Releases: 0
From: Нижний Новгород
On Forums: 11 years 10 months
Thanks: 54 time(s)
Russian Federation


Хороши, надо брать.
Go to the top of the page
  Insert nick Quick quote
+Quote Post

Reply to this topicStart new topic
2 User(s) are reading this topic (2 Guests and 0 Anonymous Users)
0 Members:

 



- Lo-Fi Version Support form
Copyrights and abuse reports form
Time is now: 19th September 2021 - 18:07:21