Welcome Guest ( Log In | Register )

> Plaguestorm - Purifying Fire (2021), Melodic Death Metal (D)
post Jun 3 2021, 11:09:25
Post #1

Шесть Литров
******
Group: Металариец
Posts: 546
Releases: 486
On Forums: 4 months 4 weeks
Thanks: 12134 time(s)
United States


(IMG:http://metalarea.org/images/audiocovers/2021_Jun/acov_tid351633_thumb.jpg)

*Artist: Plaguestorm
*Album: Purifying Fire
*Year: 2021
*Genre: Melodic Death Metal
*Country: Argentina (IMG:http://metalarea.org/forum/style_images/flags/Argentina.png)
*Format: mp3@CBR320kbps
*Size: 131MB

Tracklist:
01. Evolution Towards The Edge
02. Back To Zero
03. Purifying Fire
04. Never Learn
05. You Against The World
06. Close To Nowhere
07. No Farewell
08. Blind And Weak
09. Burning Paradise
******************************
Total playing time: 52:14



Technical info
(IMG:http://metalarea.org/images/spectrogram/2021_Jun/7c5107308e5347864c9056baddac4be5.png)
Input File: 02. Back To Zero.mp3
Channels : 2
Sample Rate : 44100
Precision : 16-bit
Duration : 00:05:10.20 = 13679732 samples = 23264.9 CDDA sectors
File Size : 12.5M
Bit Rate : 322k
Sample Encoding: MPEG audio (layer I, II or III)
Comments :
Title=Back to Zero
Artist=Plaguestorm
Album=Purifying Fire
Tracknumber=2
Year=2021-06-04
Genre=Rock / Hard Rock / Metal
Discnumber=1



Register


Go to the top of the page
  Insert nick Quick quote
+Quote Post
 
Start new topic
Replies (1 - 5)
post Jun 4 2021, 23:14:39
Post #2

Тридцать лет на борту "Тяжёлого" крейсера
**************
Group: Металариец
Posts: 2,684
Releases: 0
From: Питер
On Forums: 14 years 3 months
Thanks: 846 time(s)
Russian Federation


не,ну г.материал, чего тут обсуждать
Go to the top of the page
  Insert nick Quick quote
+Quote Post
post Jun 5 2021, 07:09:36
Post #3

Common dweller of hell
**************
Group: Металариец
Posts: 4,012
Releases: 12
From: Dnipro
On Forums: 13 years 2 months
Thanks: 1566 time(s)
Ukraine


ЦИТАТА(sadmannn @ Jun 5 2021, 01:14:39) *
не,ну г.материал, чего тут обсуждать

Я бы не был столь категоричным. Хорошая запись, прослушиваются все инструменты, видно что чувак умеет играть, да и вокал надо признать не самый плохой. Как по мне так материал на устойчивом среднем уровне, такого правда пруд пруди.


Thanks:
Go to the top of the page
  Insert nick Quick quote
+Quote Post
post Jun 5 2021, 10:00:29
Post #4

Old School Metal
**************
Group: Металариец
Posts: 4,028
Releases: 0
From: г. Минск
On Forums: 12 years 6 months
Thanks: 9587 time(s)
Belarus



Lossless: FLAC (tracks)
Register


Thanks:
Go to the top of the page
  Insert nick Quick quote
+Quote Post
post Jun 5 2021, 20:48:18
Post #5

MDM-Thrash Metal
**************
Group: Металариец
Posts: 10,591
Releases: 1320
From: Одесса
On Forums: 14 years 1 month
Thanks: 31857 time(s)
Ukraine


Кстати, да: для One Man Band - очень даже и неплохо.
На среднем уровне, не шедевр, но и не отстой.
Go to the top of the page
  Insert nick Quick quote
+Quote Post
post Aug 31 2021, 20:26:51
Post #6

Семь Литров
*******
Group: Металариец
Posts: 767
Releases: 0
From: Sweden
On Forums: 12 years 6 months
Thanks: 24 time(s)
Sweden


Thank you.
Go to the top of the page
  Insert nick Quick quote
+Quote Post

Reply to this topicStart new topic
2 User(s) are reading this topic (2 Guests and 0 Anonymous Users)
0 Members:

 



- Lo-Fi Version Support form
Copyrights and abuse reports form
Time is now: 25th September 2021 - 01:03:07