Welcome Guest ( Log In | Register )

> Aklash - Horizon (2021), Atmospheric Black Metal
post Jun 3 2021, 14:07:58
Post #1

Правь статус, ####!111
**************
Group: Металариец
Posts: 27,366
Releases: 19855
From: Г.Харьков
On Forums: 9 years 4 months
Thanks: 399886 time(s)
Unknown


(IMG:https://metalarea.org/images/audiocovers/2021_Jun/acov_tid351651_thumb.jpg)

*Artist: Aklash
*Album: Horizon
*Year: 2021
*Genre: Atmospheric Black Metal
*Country: United Kingdom (IMG:https://metalarea.org/forum/style_images/flags/United%20Kingdom.png)
*Format: mp3@CBR320kbps
*Size: 91MB

Tracklist:
1. Darkness Unfolds
2. A Dialogue of Earth and Sea
3. Horizon
4. Souls Depart
5. The Celestial Plains
6. Transcend
7. Journey's End
******************************
Total playing time: 39:16





Extended info
D. Scrivener Guitars (2011-present)
See also: Khazad-dûm, ex-Saturnian, ex-Sferic, ex-Traces, Mountainscape
N. Millar Vocals, Guitars, Violin (2011-present)
See also: AKIX, Angron, Torver, ex-Driveby Shark, ex-The Watch
C. Kendall Bass (2015-present)
See also: AKIX, Asira, ex-Khazad-dûm
Tony Lake Drums (2016-present)
See also: ex-Sferic, ex-Diathesis, ex-Surge of Hatred


Technical info
(IMG:https://metalarea.org/images/spectrogram/2021_Jun/6478eaf6c679ffaf99036cac7a985148.png)
Input File: 07 - Journeys End.mp3
Channels : 2
Sample Rate : 44100
Precision : 16-bit
Duration : 00:06:05.00 = 16096500 samples = 27375 CDDA sectors
File Size : 14.7M
Bit Rate : 323k
Sample Encoding: MPEG audio (layer I, II or III)
Comments :
Title=Journeys End
Artist=Aklash
Album=Horizon
Tracknumber=7
Year=2021-06-04
Discnumber=1



Register


Go to the top of the page
  Insert nick Quick quote
+Quote Post
 
Start new topic
Replies (1 - 10)
post Jun 4 2021, 08:32:12
Post #2

Четыре Литра
****
Group: Металариец
Posts: 381
Releases: 213
On Forums: 9 years 1 week
Thanks: 6157 time(s)
Unknown


'Horizon' contains ritualistic neo-classical reworkings of tracks from Aklash's first two albums.
Go to the top of the page
  Insert nick Quick quote
+Quote Post
post Jun 4 2021, 08:59:40
Post #3
BAN
Banned till
Oct 22 2021, 16:25:29



читал, чуть буквы не перепутал (IMG:style_emoticons/default/alkash.gif)


Go to the top of the page
  Insert nick Quick quote
+Quote Post
post Jun 4 2021, 09:27:38
Post #4

Добрый язычник
*********
Group: Металариец
Posts: 950
Releases: 11
From: Санкт-Петербург
On Forums: 15 years 9 months
Thanks: 316 time(s)
Russian Federation


QUOTE(ent404 @ Jun 4 2021, 13:59:40) *
читал, чуть буквы не перепутал (IMG:style_emoticons/default/alkash.gif)

А я вот перепутал ))))
Go to the top of the page
  Insert nick Quick quote
+Quote Post
post Jun 4 2021, 09:52:04
Post #5

Ледоруб
**************
Group: Металариец
Posts: 28,746
Releases: 0
From: Санкт-Петербург
On Forums: 12 years 1 week
Thanks: 10344 time(s)
Russian Federation


И как их тут можно перепутать?
Go to the top of the page
  Insert nick Quick quote
+Quote Post
post Jun 4 2021, 10:13:42
Post #6
BAN
Banned till
Oct 22 2021, 16:25:29



ЦИТАТА(6666666 @ 4th June 2021 - 13:52:04) *
И как их тут можно перепутать?

тест завален.
Go to the top of the page
  Insert nick Quick quote
+Quote Post
post Jun 4 2021, 10:16:17
Post #7

Ледоруб
**************
Group: Металариец
Posts: 28,746
Releases: 0
From: Санкт-Петербург
On Forums: 12 years 1 week
Thanks: 10344 time(s)
Russian Federation


ЦИТАТА(ent404 @ 4th June 2021 - 12:13:42) *
тест завален.

Вами.
Go to the top of the page
  Insert nick Quick quote
+Quote Post
post Jun 4 2021, 11:06:29
Post #8
BAN
Banned till
Oct 22 2021, 16:25:29



ЦИТАТА(6666666 @ 4th June 2021 - 14:16:17) *
Вами

капсом напиши, может полегчает (IMG:style_emoticons/default/smile1.gif)
Go to the top of the page
  Insert nick Quick quote
+Quote Post
post Jun 4 2021, 18:59:21
Post #9

Ёлд ХеллоВяйне
Group Icon
Group: V.I.P
Posts: 32,058
Releases: 144
From: Питер
On Forums: 14 years 10 months
Thanks: 20084 time(s)
Russian Federation


Тот случай, когда зашёл в тему уже чётко зная, о чём тут речи ведут.


Go to the top of the page
  Insert nick Quick quote
+Quote Post
post Jun 23 2021, 12:45:55
Post #10

добрый мизантроп
**************
Group: Металариец
Posts: 2,368
Releases: 1
From: Менск
On Forums: 10 years 10 months
Thanks: 1075 time(s)
Madagascar


ЦИТАТА(6666666 @ Jun 4 2021, 11:52:04) *
И как их тут можно перепутать?

Каждый релиз старательно путают


Thanks:
(1) Occultas,
Go to the top of the page
  Insert nick Quick quote
+Quote Post
post Jul 10 2021, 07:02:48
Post #11

Group Icon
Group: S-moderation team
Posts: 21,942
Releases: 1443
From: Zagreb
On Forums: 10 years 6 months
Thanks: 102455 time(s)
Croatia


Register


Thanks:
Go to the top of the page
  Insert nick Quick quote
+Quote Post

Reply to this topicStart new topic
2 User(s) are reading this topic (2 Guests and 0 Anonymous Users)
0 Members:

 



- Lo-Fi Version Support form
Copyrights and abuse reports form
Time is now: 19th September 2021 - 19:10:25