Welcome Guest ( Log In | Register )

> Releases Upload / Добавление релизов

Добавить релиз тут / Click here to add release
Рекомендованные обменники / Recommended file shares

> Boss Keloid - Family The Smiling Thrush (2021), Sludge (D4)
post Jun 3 2021, 18:28:30
Post #1

Правь статус, ####!111
**************
Group: Металариец
Posts: 4,162
Releases: 3812
From: Одесса
On Forums: 13 years 1 month
Thanks: 41700 time(s)
Ukraine


(IMG:http://metalarea.org/images/audiocovers/2021_Jun/acov_tid351661_thumb.jpg)

*Artist: Boss Keloid
*Album: Family The Smiling Thrush
*Year: 2021
*Genre: Sludge
*Country: United Kingdom (IMG:http://metalarea.org/forum/style_images/flags/United%20Kingdom.png)
*Format: mp3@CBR320kbps
*Size: 110MB

Tracklist:
1. Orang of Noyn 09:04
2. Gentle Clovis 06:33
3. Hats the Mandrill 06:46
4. Smiling Thrush 05:16
5. Cecil Succulent 05:53
6. Grendle 05:39
7. Flatt Controller 06:16
******************************
Total playing time: 45:27



Extended info
Line - up:

Liam Pendlebury-Green - Bass
Paul Swarbrick - Guitars
Alex Hurst - Vocals (Lost Dogs, River Junkies, The Hicks)
Ste Arands - Drums
Matthew Milne - Keyboards


Technical info
(IMG:http://metalarea.org/images/spectrogram/2021_Jun/eb8e48c4d83d3d888f8cf9ac4dbf90e8.png)
Input File: 03 Hats The Madrill.mp3
Channels : 2
Sample Rate : 44100
Precision : 16-bit
Duration : 00:06:46.70 = 17935470 samples = 30502.5 CDDA sectors
File Size : 16.3M
Bit Rate : 320k
Sample Encoding: MPEG audio (layer I, II or III)
Comments :
Title=Hats The Madrill
Artist=Boss Keloid
Album=Family The Smiling Thrush
Tracknumber=3
Year=2021-04-06
Genre=Sludge Metal



Register


Go to the top of the page
  Insert nick Quick quote
+Quote Post
 
Start new topic
Replies (1 - 1)
post Jun 10 2021, 17:14:32
Post #2

Маньяк
**********
Group: Металариец
Posts: 1,091
Releases: 4
From: Харьков
On Forums: 12 years 11 months
Thanks: 403 time(s)
Ukraine


progressive rock
Go to the top of the page
  Insert nick Quick quote
+Quote Post

Reply to this topicStart new topic
1 User(s) are reading this topic (1 Guests and 0 Anonymous Users)
0 Members:

 



- Lo-Fi Version Support form
Copyrights and abuse reports form
Time is now: 29th July 2021 - 14:23:51