Welcome Guest ( Log In | Register )

> Правила / Rules

Тут только для чтения лежат низкобитрейтные (<192kbps) релизы, для которых есть аналоги в высокобитрейтных форумах.

Here goes (and stand in read only mode) low bitrate releases (<192kbps) which were already replaced by high bitrate releases in corresponding forums.

Причина закрытия (Borderline1991 08-06-2021):
 
Closed TopicStart new topic
> Coffin Lurker - Foul And Defiled (2021), Doom/Death Metal/Drone
post Jun 4 2021, 04:25:04
Post #1

Правь статус, ####!111
**************
Group: Металариец
Posts: 26,313
Releases: 18927
From: Г.Харьков
On Forums: 9 years 1 month
Thanks: 377437 time(s)
Unknown


(IMG:https://metalarea.org/images/audiocovers/2021_Jun/acov_tid351689_thumb.jpg)

*Artist: Coffin Lurker
*Album: Foul And Defiled
*Year: 2021
*Genre: Doom/Death Metal/Drone
*Country: Netherlands (IMG:https://metalarea.org/forum/style_images/flags/Netherlands.png)
*Format: mp3@CBR320kbps
*Size: 73MB

Tracklist:
01. Crypt within a Crypt
02. Of Suffering
03. Suspended Animation
04. Sacrificial Chalice
05. Cadaverous Odor
******************************
Total playing time: 31:50



Technical info
(IMG:https://metalarea.org/images/spectrogram/2021_Jun/f9ab198be2eeb07b85c2c06d236e2bc8.png)
Input File: 04. Sacrificial Chalice.mp3
Channels : 2
Sample Rate : 44100
Precision : 16-bit
Duration : 00:08:17.85 = 21955009 samples = 37338.5 CDDA sectors
File Size : 19.9M
Bit Rate : 320k
Sample Encoding: MPEG audio (layer I, II or III)
Comments :
Title=Sacrificial Chalice
Artist=Coffin Lurker
Album=Foul and Defiled
Tracknumber=04
Year=2021



Register


Thanks:
(1) VALERY,
Go to the top of the page
  Insert nick Quick quote
+Quote Post

Причина закрытия (Borderline1991 08-06-2021):
Closed TopicStart new topic
2 User(s) are reading this topic (2 Guests and 0 Anonymous Users)
0 Members:

 



- Lo-Fi Version Support form
Copyrights and abuse reports form
Time is now: 18th June 2021 - 06:30:29