Welcome Guest ( Log In | Register )

> Ethereal Void - Acolytes Of Entropy (2021), Death Metal
post Jun 4 2021, 17:45:21
Post #1

Правь статус, ####!111
**************
Group: Металариец
Posts: 4,292
Releases: 3941
From: Одесса
On Forums: 13 years 3 months
Thanks: 43453 time(s)
Ukraine


(IMG:http://metalarea.org/images/audiocovers/2021_Jun/acov_tid351710_thumb.jpg)

*Artist: Ethereal Void
*Album: Acolytes Of Entropy
*Year: 2021
*Genre: Death Metal
*Country: Canada (IMG:http://metalarea.org/forum/style_images/flags/Canada.png)
*Format: mp3@CBR320kbps
*Size: 63MB

Tracklist:
1. Immaculate Destroyer 03:36
2. Spiritual Eradication 03:02
3. Eternity Undone 04:48
4. Tombs 02:28
5. Fear Me 04:49
6. Loss 05:03
7. Void Absolute 03:04
******************************
Total playing time: 26:50



Extended info
Line - up:

Voiicide - Unknown
Terri Ruina - Unknown
Nemesis - Unknown


Technical info
(IMG:http://metalarea.org/images/spectrogram/2021_Jun/4ece6fe902d09f07e219eef6ba1473c4.png)
Input File: 04. Tombs.mp3
Channels : 2
Sample Rate : 44100
Precision : 16-bit
Duration : 00:02:28.67 = 6556523 samples = 11150.5 CDDA sectors
File Size : 5.95M
Bit Rate : 320k
Sample Encoding: MPEG audio (layer I, II or III)
Comments :
Title=Tombs
Artist=Ethereal Void
Album=Acolytes of Entropy
Tracknumber=4
Year=2021
Genre=22



Register


Go to the top of the page
  Insert nick Quick quote
+Quote Post
 
Start new topic
Replies (1 - 2)
post Jun 5 2021, 19:07:23
Post #2

Два Литра
**
Group: Завсегдатай
Posts: 152
Releases: 0
On Forums: 5 months 6 days
Thanks: 56 time(s)
Unknown


Мои земляки. Прог-дет.
Go to the top of the page
  Insert nick Quick quote
+Quote Post
post Jun 23 2021, 12:54:56
Post #3

добрый мизантроп
**************
Group: Металариец
Posts: 2,394
Releases: 1
From: Менск
On Forums: 10 years 10 months
Thanks: 1081 time(s)
Madagascar


ЦИТАТА(metamfer @ Jun 5 2021, 21:07:23) *
Мои земляки. Прог-дет.

Из хзляндии?


Thanks:
(1) Occultas,
Go to the top of the page
  Insert nick Quick quote
+Quote Post

Reply to this topicStart new topic
2 User(s) are reading this topic (2 Guests and 0 Anonymous Users)
0 Members:

 



- Lo-Fi Version Support form
Copyrights and abuse reports form
Time is now: 27th September 2021 - 05:23:55