Welcome Guest ( Log In | Register )

> Releases Upload / Добавление релизов

Добавить релиз тут / Click here to add release
Рекомендованные обменники / Recommended file shares

> Kvadrat - Ψυχική Αποσύνθεση [ep] (2021), Black/Death Metal
post Jun 4 2021, 18:24:46
Post #1

Правь статус, ####!616
**************
Group: Металариец
Posts: 6,644
Releases: 5111
From: 55°35’N 38°08’E
On Forums: 13 years 3 weeks
Thanks: 94060 time(s)
Unknown


(IMG:https://metalarea.org/images/audiocovers/2021_Jun/acov_tid351712_thumb.jpg)

*Artist: Kvadrat
*Album: Ψυχική Αποσύνθεση [ep]
*Year: 2021
*Genre: Black/Death Metal
*Country: Greece (IMG:https://metalarea.org/forum/style_images/flags/Greece.png)
*Format: mp3@CBR320kbps
*Size: 59MB

Tracklist:
1.Αποξένωση 06:36
2.Αποκοπή 05:38
3.Λήθαργος 05:59
4.Ψυχική Αποσύνθεση 04:43
******************************
Total playing time: 22:56




Technical info
(IMG:https://metalarea.org/images/spectrogram/2021_Jun/235fbef696b4eadd6ae33088146f9f13.png)
Input File: 01 Αποξένωση.mp3
Channels : 2
Sample Rate : 44100
Precision : 16-bit
Duration : 00:06:36.93 = 17504569 samples = 29769.7 CDDA sectors
File Size : 16.0M
Bit Rate : 322k
Sample Encoding: MPEG audio (layer I, II or III)
Comments :
Title=Αποξένωση
Artist=Kvadrat
Album=Ψυχική Αποσύνθεση
Tracknumber=1
Year=2021
Genre=Black/Death Metal



Register


Go to the top of the page
  Insert nick Quick quote
+Quote Post
 
Start new topic
Replies (1 - 3)
post Jun 7 2021, 01:10:35
Post #2

Шесть Литров
******
Group: Металариец
Posts: 501
Releases: 0
From: Москва
On Forums: 14 years 9 months
Thanks: 111 time(s)
Russian Federation


Рядовая долба, только на греческом.


Thanks:
Go to the top of the page
  Insert nick Quick quote
+Quote Post
post Jun 16 2021, 14:45:00
Post #3

Два Литра
**
Group: Завсегдатай
Posts: 109
Releases: 0
From: Москва
On Forums: 15 years 6 months
Thanks: 19 time(s)
Russian Federation


С предыдущим оратором (IMG:style_emoticons/default/13.gif) не согласен, рядовой такая музыка никогда не будет считаться.
Несмотря на то, что материал выполнен в духе последних (скучных и безликих) релизов DSO, послушать можно,
т.к. на протяжении релиза встречается несколько искренних всплесков ярости (IMG:style_emoticons/default/m1234.gif) .
Go to the top of the page
  Insert nick Quick quote
+Quote Post
post Jul 19 2021, 18:51:54
Post #4

кручу наждак
**************
Group: Металариец
Posts: 5,051
Releases: 104
From: Самара
On Forums: 11 years 2 months
Thanks: 4079 time(s)
Russian Federation


А греки прям хороши.
Go to the top of the page
  Insert nick Quick quote
+Quote Post

Reply to this topicStart new topic
2 User(s) are reading this topic (2 Guests and 0 Anonymous Users)
0 Members:

 



- Lo-Fi Version Support form
Copyrights and abuse reports form
Time is now: 1st August 2021 - 12:20:57