Welcome Guest ( Log In | Register )

> Kvadrat - Ψυχική Αποσύνθεση [ep] (2021), Black/Death Metal
post Jun 4 2021, 18:24:46
Post #1

Правь статус, ####!616
**************
Group: Металариец
Posts: 6,910
Releases: 5356
From: 55°35’N 38°08’E
On Forums: 13 years 2 months
Thanks: 98349 time(s)
Unknown


(IMG:https://metalarea.org/images/audiocovers/2021_Jun/acov_tid351712_thumb.jpg)

*Artist: Kvadrat
*Album: Ψυχική Αποσύνθεση [ep]
*Year: 2021
*Genre: Black/Death Metal
*Country: Greece (IMG:https://metalarea.org/forum/style_images/flags/Greece.png)
*Format: mp3@CBR320kbps
*Size: 59MB

Tracklist:
1.Αποξένωση 06:36
2.Αποκοπή 05:38
3.Λήθαργος 05:59
4.Ψυχική Αποσύνθεση 04:43
******************************
Total playing time: 22:56




Technical info
(IMG:https://metalarea.org/images/spectrogram/2021_Jun/235fbef696b4eadd6ae33088146f9f13.png)
Input File: 01 Αποξένωση.mp3
Channels : 2
Sample Rate : 44100
Precision : 16-bit
Duration : 00:06:36.93 = 17504569 samples = 29769.7 CDDA sectors
File Size : 16.0M
Bit Rate : 322k
Sample Encoding: MPEG audio (layer I, II or III)
Comments :
Title=Αποξένωση
Artist=Kvadrat
Album=Ψυχική Αποσύνθεση
Tracknumber=1
Year=2021
Genre=Black/Death Metal



Register


Go to the top of the page
  Insert nick Quick quote
+Quote Post
 
Start new topic
Replies (1 - 6)
post Jun 7 2021, 01:10:35
Post #2

Шесть Литров
******
Group: Металариец
Posts: 556
Releases: 0
From: Москва
On Forums: 14 years 10 months
Thanks: 122 time(s)
Russian Federation


Рядовая долба, только на греческом.


Thanks:
Go to the top of the page
  Insert nick Quick quote
+Quote Post
post Jun 16 2021, 14:45:00
Post #3

Два Литра
**
Group: Завсегдатай
Posts: 112
Releases: 0
From: Москва
On Forums: 15 years 8 months
Thanks: 20 time(s)
Russian Federation


С предыдущим оратором (IMG:style_emoticons/default/13.gif) не согласен, рядовой такая музыка никогда не будет считаться.
Несмотря на то, что материал выполнен в духе последних (скучных и безликих) релизов DSO, послушать можно,
т.к. на протяжении релиза встречается несколько искренних всплесков ярости (IMG:style_emoticons/default/m1234.gif) .
Go to the top of the page
  Insert nick Quick quote
+Quote Post
post Jul 19 2021, 18:51:54
Post #4

кручу наждак
**************
Group: Металариец
Posts: 5,119
Releases: 104
From: Самара
On Forums: 11 years 4 months
Thanks: 4110 time(s)
Russian Federation


А греки прям хороши.


Thanks:
(1) Mencae77,
Go to the top of the page
  Insert nick Quick quote
+Quote Post
post Aug 28 2021, 13:03:23
Post #5

Два Литра
**
Group: Завсегдатай
Posts: 197
Releases: 1
From: Brasil - Sao Paulo
On Forums: 1 year 4 months
Thanks: 86 time(s)
Brazil


Pretty good EP, free om bandcamp (IMG:style_emoticons/default/smile1.gif)
Go to the top of the page
  Insert nick Quick quote
+Quote Post
post Aug 28 2021, 14:29:00
Post #6

Четыре Литра
****
Group: Металариец
Posts: 385
Releases: 0
On Forums: 12 years 7 months
Thanks: 295 time(s)
Brazil


Original cover art:
(IMG:https://upload.wikimedia.org/wikipedia/commons/d/d9/Чёрный_супрематический_квадрат._1915._ГТГ.png)


Thanks:
(1) waffenss,
Go to the top of the page
  Insert nick Quick quote
+Quote Post
post Aug 28 2021, 14:30:47
Post #7

Два Литра
**
Group: Завсегдатай
Posts: 185
Releases: 0
From: Лиски
On Forums: 10 years 2 months
Thanks: 32 time(s)
Russian Federation


ЦИТАТА(deadterror @ Jun 16 2021, 14:45:00) *
С предыдущим оратором (IMG:style_emoticons/default/13.gif) не согласен, рядовой такая музыка никогда не будет считаться.
Несмотря на то, что материал выполнен в духе последних (скучных и безликих) релизов DSO, послушать можно,
т.к. на протяжении релиза встречается несколько искренних всплесков ярости (IMG:style_emoticons/default/m1234.gif) .

Согласен,что ты не согласен.
Некий шарм всё-же присутствует,только нужно ловить.Кто в курсе-тот поймёт.
Ну и да-это греки...
Go to the top of the page
  Insert nick Quick quote
+Quote Post

Reply to this topicStart new topic
1 User(s) are reading this topic (1 Guests and 0 Anonymous Users)
0 Members:

 



- Lo-Fi Version Support form
Copyrights and abuse reports form
Time is now: 17th September 2021 - 14:31:26