Welcome Guest ( Log In | Register )

> Releases Upload / Добавление релизов

Добавить релиз тут / Click here to add release
Рекомендованные обменники / Recommended file shares

> Bed Of Razors - Bed Of Razors (2021), Thrash Metal/Crossover
post Jun 9 2021, 18:51:01
Post #1

Правь статус, ####!111
**************
Group: Металариец
Posts: 26,371
Releases: 18968
From: Г.Харьков
On Forums: 9 years 1 month
Thanks: 378647 time(s)
Unknown


(IMG:https://metalarea.org/images/audiocovers/2021_Jun/acov_tid351844_thumb.jpg)

*Artist: Bed Of Razors
*Album: Bed Of Razors
*Year: 2021
*Genre: Thrash Metal/Crossover
*Country: United States (IMG:https://metalarea.org/forum/style_images/flags/United%20States.png)
*Format: mp3@CBR320kbps
*Size: 60MB

Tracklist:
1. Crippling Ambition 02:40
2. Ingest 02:27
3. Safety of a Screen 01:59
4. Splinter of the Mind's Eye 02:46
5. Shame's Tradition 01:37
6. Tips the Scale 01:25
7. Bed of Razors 01:07
8. Surrendering Autonomy 03:19
9. Malevolent Continuum 02:39
10. Neglect and Violence 03:12
11. How This Probably Ends 02:19
******************************
Total playing time: 25:30




Extended info
Cody Delvecchio Bass (2019-present)
See also: Instigate, xForgiveness Deniedx
Tyler Gibeault Drums (2019-present)
See also: 2642, xForgiveness Deniedx
Josh Guitars (2019-present)
Bobby Guitars (2019-present)
Steve Zee Vocals (2019-present)


Technical info
(IMG:https://metalarea.org/images/spectrogram/2021_Jun/49e9289863f01a7b09d378357d1e00b4.png)
Input File: Bed of Razors - Bed of Razors - 08 Surrendering Autonomy.mp3
Channels : 2
Sample Rate : 44100
Precision : 16-bit
Duration : 00:03:19.14 = 8782162 samples = 14935.6 CDDA sectors
File Size : 8.13M
Bit Rate : 327k
Sample Encoding: MPEG audio (layer I, II or III)
Comments :
Title=Surrendering Autonomy
Artist=Bed of Razors
Album=Bed of Razors
Tracknumber=8
Year=2021



Register


Go to the top of the page
  Insert nick Quick quote
+Quote Post
 
Start new topic
Replies (1 - 2)
post Jun 10 2021, 20:44:10
Post #2

Group: Подсевший
Posts: 45
Releases: 0
On Forums: 9 months 3 days
Thanks: 6 time(s)
Czech Republic


Lossless please?
Go to the top of the page
  Insert nick Quick quote
+Quote Post
post Jun 18 2021, 12:52:54
Post #3

0%Tolerance
**********
Group: Металариец
Posts: 1,046
Releases: 0
On Forums: 8 years 9 months
Thanks: 188 time(s)
Unknown


Нормально раскачивают.
Go to the top of the page
  Insert nick Quick quote
+Quote Post

Reply to this topicStart new topic
2 User(s) are reading this topic (2 Guests and 0 Anonymous Users)
0 Members:

 



- Lo-Fi Version Support form
Copyrights and abuse reports form
Time is now: 25th June 2021 - 04:35:35