Welcome Guest ( Log In | Register )

> Releases Upload / Добавление релизов

Добавить релиз тут / Click here to add release
Рекомендованные обменники / Recommended file shares

> Firienholt - By The Waters Of Awakening (2021), Epic Atmospheric Black Metal/Dungeon Synth
post Jun 10 2021, 11:17:46
Post #1

Пять Литров
*****
Group: Металариец
Posts: 441
Releases: 384
On Forums: 1 month 4 weeks
Thanks: 8599 time(s)
United States


(IMG:http://metalarea.org/images/audiocovers/2021_Jun/acov_tid351872_thumb.jpg)

*Artist: Firienholt
*Album: By The Waters Of Awakening
*Year: 2021
*Genre: Epic Atmospheric Black Metal/Dungeon Synth
*Country: United Kingdom (IMG:http://metalarea.org/forum/style_images/flags/United%20Kingdom.png)
*Format: mp3@CBR320kbps
*Size: 134MB

Tracklist:
01. A Forgotten Legacy
02. War Of Wrath, War Of Ruin
03. Ashes Of The Golden Hall
04. Ruminations By Starlight
05. The Whispering Shadow
******************************
Total playing time: 55:26



Technical info
(IMG:http://metalarea.org/images/spectrogram/2021_Jun/3a74d3407f011d390c9b9d8831a7f4df.png)
Input File: 02. War Of Wrath, War Of Ruin.mp3
Channels : 2
Sample Rate : 44100
Precision : 16-bit
Duration : 00:09:36.69 = 25431941 samples = 43251.6 CDDA sectors
File Size : 23.1M
Bit Rate : 321k
Sample Encoding: MPEG audio (layer I, II or III)
Comments :
Title=War of Wrath, War of Ruin
Artist=Firienholt
Album=By the Waters of Awakening
Tracknumber=2
Year=2021-06-11
Genre=Classical / Rock
Discnumber=1



Register


Go to the top of the page
  Insert nick Quick quote
+Quote Post
 
Start new topic
Replies (1 - 5)
post Jun 10 2021, 21:05:14
Post #2

Маньяк
**********
Group: Металариец
Posts: 1,451
Releases: 0
From: Russian Federation - St.Petersburg
On Forums: 12 years 3 months
Thanks: 392 time(s)
Russian Federation


Классный музон! Здорово напоминает Caladan Brood, только более симфоничнее! (IMG:style_emoticons/default/20.gif)
Go to the top of the page
  Insert nick Quick quote
+Quote Post
post Jun 12 2021, 08:38:10
Post #3

Old School Metal
**************
Group: Металариец
Posts: 3,899
Releases: 0
From: г. Минск
On Forums: 12 years 3 months
Thanks: 9071 time(s)
Belarus


Lossless: FLAC (tracks)
Register


Thanks:
Go to the top of the page
  Insert nick Quick quote
+Quote Post
post Jun 12 2021, 14:15:10
Post #4

Шесть Литров
******
Group: Металариец
Posts: 549
Releases: 0
From: Лыткарино
On Forums: 2 years 1 month
Thanks: 139 time(s)
Russian Federation


Хорошая штука, действительно суммонинговщина в духе CB )
Go to the top of the page
  Insert nick Quick quote
+Quote Post
post Jun 12 2021, 22:04:51
Post #5

Group: Подсевший
Posts: 15
Releases: 0
On Forums: 2 years 6 months
Thanks: 1 time(s)
Ukraine


Согласен с предыдущими ораторами. Калаброды! И это здорово. Зачёт!
Go to the top of the page
  Insert nick Quick quote
+Quote Post
post Jun 17 2021, 10:58:09
Post #6

Ёлд ХеллоВяйне
Group Icon
Group: V.I.P
Posts: 31,721
Releases: 144
From: Питер
On Forums: 14 years 7 months
Thanks: 19804 time(s)
Russian Federation


QUOTE(alicons @ 13th June 2021 - 00:04:51) *
Калаброды!


Кто?! (IMG:style_emoticons/default/headcrab.png)

Неплохо, но клавиши слишком уж на передний план выведены.
Go to the top of the page
  Insert nick Quick quote
+Quote Post

Reply to this topicStart new topic
2 User(s) are reading this topic (2 Guests and 0 Anonymous Users)
0 Members:

 



- Lo-Fi Version Support form
Copyrights and abuse reports form
Time is now: 25th June 2021 - 05:30:34