Welcome Guest ( Log In | Register )

> Releases Upload / Добавление релизов

Добавить релиз тут / Click here to add release
Рекомендованные обменники / Recommended file shares

> Abused Majesty - Inner Consciousness [ep] (2021), Symphonic Black Metal (D)
post Jun 10 2021, 12:24:31
Post #1

Правь статус, ####!616
**************
Group: Металариец
Posts: 6,350
Releases: 4838
From: 55°35’N 38°08’E
On Forums: 12 years 11 months
Thanks: 89425 time(s)
Unknown


(IMG:https://metalarea.org/images/audiocovers/2021_Jun/acov_tid351890_thumb.jpg)

*Artist: Abused Majesty
*Album: Inner Consciousness [ep]
*Year: 2021
*Genre: Symphonic Black Metal
*Country: Poland (IMG:https://metalarea.org/forum/style_images/flags/Poland.png)
*Format: mp3@CBR320kbps
*Size: 28MB

Tracklist:
1.Darkness Walks With Them 04:31
2.Inner Consciousness 05:28
******************************
Total playing time: 9:59



Technical info
(IMG:https://metalarea.org/images/spectrogram/2021_Jun/dba3f7cbb9651d1403fffa93626b1bf5.png)
Input File: 01 Darkness Walks With Them.mp3
Channels : 2
Sample Rate : 44100
Precision : 16-bit
Duration : 00:04:31.09 = 11955069 samples = 20331.7 CDDA sectors
File Size : 11.1M
Bit Rate : 326k
Sample Encoding: MPEG audio (layer I, II or III)
Comments :
Title=Darkness Walks With Them
Artist=Abused Majesty
Album=Inner Consciousness
Tracknumber=1
Year=2021
Genre=Black Metal



Register


Go to the top of the page
  Insert nick Quick quote
+Quote Post
 
Start new topic
Replies (1 - 1)
post Jun 11 2021, 15:57:29
Post #2

Common dweller of hell
**************
Group: Металариец
Posts: 3,823
Releases: 12
From: Dnipro
On Forums: 12 years 11 months
Thanks: 1506 time(s)
Ukraine


Хорошая группа, жаль что мало альбомов выпускает, помню их альбом 2004 года, он был просто на ура.
13 лет уже от них полноформатника не было.


Thanks:
Go to the top of the page
  Insert nick Quick quote
+Quote Post

Reply to this topicStart new topic
1 User(s) are reading this topic (1 Guests and 0 Anonymous Users)
0 Members:

 



- Lo-Fi Version Support form
Copyrights and abuse reports form
Time is now: 18th June 2021 - 07:04:10