Welcome Guest ( Log In | Register )

> Releases Upload / Добавление релизов

Добавить релиз тут / Click here to add release
Рекомендованные обменники / Recommended file shares

> Machine Head - Arrows In Words From The Sky [ep] (2021), Groove/Thrash Metal (D)
post Jun 10 2021, 12:50:38
Post #1

Правь статус, ####!111
**************
Group: Металариец
Posts: 26,313
Releases: 18927
From: Г.Харьков
On Forums: 9 years 1 month
Thanks: 377446 time(s)
Unknown


(IMG:https://metalarea.org/images/audiocovers/2021_Jun/acov_tid351892_thumb.jpg)

*Artist: Machine Head
*Album: Arrows In Words From The Sky [ep]
*Year: 2021
*Genre: Groove/Thrash Metal
*Country: United States (IMG:https://metalarea.org/forum/style_images/flags/United%20States.png)
*Format: mp3@CBR320kbps
*Size: 37MB

Tracklist:
01. Become the Firestorm 05:00
02. Rotten 04:47
03. Arrows in Words from the Sky 05:55
******************************
Total playing time: 15:42



Extended info
Robb Flynn Vocals, Guitars (1991-present)
See also: ex-Vio-lence, ex-Sexoturica, ex-Forbidden Evil, ex-Quarteto de Pinga, ex-Roadrunner United
Jared MacEachern Bass, Vocals (backing) (2013-present)
See also: ex-Serenity Dies, ex-Sanctity
Matt Alston Drums, Percussion (2019-present)
See also: Eastern Front, Sanctorum, ex-Guardians of Andromeda, ex-Devilment
Vogg Guitars (lead) (2019-present)
See also: Decapitated, Lux Occulta, ex-Sceptic (live), ex-Vader (live)


Technical info
(IMG:https://metalarea.org/images/spectrogram/2021_Jun/7261c2f4f0caa9f294002e91e6e12eb6.png)
Input File: 03 Arrows in Words from the Sky.mp3
Channels : 2
Sample Rate : 44100
Precision : 16-bit
Duration : 00:05:55.36 = 15671508 samples = 26652.2 CDDA sectors
File Size : 14.2M
Bit Rate : 320k
Sample Encoding: MPEG audio (layer I, II or III)
Comments :
Title=Arrows in Words from the Sky
Artist=Machine Head
Album=Arrows in Words from the Sky
Tracknumber=03/03
Year=2021-21-20
Discnumber=1/1



Register


Go to the top of the page
  Insert nick Quick quote
+Quote Post
 
Start new topic
Replies (1 - 3)
post Jun 11 2021, 12:14:21
Post #2

0%Tolerance
**********
Group: Металариец
Posts: 1,038
Releases: 0
On Forums: 8 years 9 months
Thanks: 187 time(s)
Unknown


Сто лет их не слушал. На хер этот евнух на втором вокале? Качает местами сиюминутно. Если бы релиз был полноформатом - срубил бы на середине и выкинул в мусорку.
Go to the top of the page
  Insert nick Quick quote
+Quote Post
post Yesterday, 10:40:39
Post #3

Ёлд ХеллоВяйне
Group Icon
Group: V.I.P
Posts: 31,676
Releases: 144
From: Питер
On Forums: 14 years 7 months
Thanks: 19758 time(s)
Russian Federation


Могу только повторить: в кои веки приличную музыку заиграли. Последний раз такое аккурат лет десять назад было (предыдущий неплох, но больно уж моден-молодёжен, хотя группе подобное не впервой).
Go to the top of the page
  Insert nick Quick quote
+Quote Post
post Yesterday, 14:46:27
Post #4

Прог-козёл (с)
**************
Group: Металариец
Posts: 15,623
Releases: 0
From: Киев
On Forums: 13 years 4 months
Thanks: 9847 time(s)
Unknown


ЦИТАТА(Old Vyaine @ Jun 17 2021, 14:40:39) *
Могу только повторить: в кои веки приличную музыку заиграли. Последний раз такое аккурат лет десять назад было (предыдущий неплох, но больно уж моден-молодёжен, хотя группе подобное не впервой).

Так в рамках дискографии группы 10 лет назад это почти "только что".
Go to the top of the page
  Insert nick Quick quote
+Quote Post

Reply to this topicStart new topic
1 User(s) are reading this topic (1 Guests and 0 Anonymous Users)
0 Members:

 



- Lo-Fi Version Support form
Copyrights and abuse reports form
Time is now: 18th June 2021 - 07:25:22