Welcome Guest ( Log In | Register )

> Releases Upload / Добавление релизов

Добавить релиз тут / Click here to add release
Рекомендованные обменники / Recommended file shares

> Radon Trench - Gods Of Decimation [ep] (2019), Black/Death Metal/Noise
post Jun 10 2021, 12:53:55
Post #1

𝕻𝕬𝕹𝕬𝕮𝕰𝕬
*********
Group: Металариец
Posts: 929
Releases: 548
On Forums: 9 years 2 weeks
Thanks: 9874 time(s)
Unknown


(IMG:https://metalarea.org/images/audiocovers/2021_Jun/acov_tid351893_thumb.jpg)

*Artist: Radon Trench
*Album: Gods Of Decimation [ep]
*Year: 2019
*Genre: Black/Death Metal/Noise
*Country: Italy (IMG:https://metalarea.org/forum/style_images/flags/Italy.png)
*Format: mp3@CBR192kbps
*Size: 21MB

Tracklist:
1. Not A Step Back! 05:52
2. CN- 02:03
3. Death Before Dishonour (Bushido) 04:18
4. Decimation 03:08
******************************
Total playing time: 15:21

Extended info
Cassette released by Pagan Infantry Records.
MCD edition released by Demented Omen of Masochism.


Technical info
(IMG:https://metalarea.org/images/spectrogram/2021_Jun/c814b7805b6861d417ba0793889681c6.png)
Input File: 04 - Decimation.mp3
Channels : 2
Sample Rate : 44100
Precision : 16-bit
Duration : 00:03:08.94 = 8332386 samples = 14170.7 CDDA sectors
File Size : 4.53M
Bit Rate : 192k
Sample Encoding: MPEG audio (layer I, II or III)
Comments :
Title=Decimation
Artist=Radon Trench
Album=Gods Of Decimation
Tracknumber=4
Year=2019
Genre=Black/Death Metal/Noise



Register


Go to the top of the page
  Insert nick Quick quote
+Quote Post
 
Start new topic
Replies (1 - 1)
post Jun 10 2021, 18:54:24
Post #2

𝕻𝕬𝕹𝕬𝕮𝕰𝕬
*********
Group: Металариец
Posts: 929
Releases: 548
On Forums: 9 years 2 weeks
Thanks: 9874 time(s)
Unknown


Go to the top of the page
  Insert nick Quick quote
+Quote Post

Reply to this topicStart new topic
2 User(s) are reading this topic (2 Guests and 0 Anonymous Users)
0 Members:

 



- Lo-Fi Version Support form
Copyrights and abuse reports form
Time is now: 18th June 2021 - 07:07:54