Welcome Guest ( Log In | Register )

> Releases Upload / Добавление релизов

Добавить релиз тут / Click here to add release
Рекомендованные обменники / Recommended file shares

 
Reply to this topicStart new topic
> Melatonyn - Syzygy [ep] (2021), Atmospheric/Post-Black Metal
post Jun 10 2021, 12:58:24
Post #1

Правь статус, ####!616
**************
Group: Металариец
Posts: 6,350
Releases: 4838
From: 55°35’N 38°08’E
On Forums: 12 years 11 months
Thanks: 89425 time(s)
Unknown


(IMG:https://metalarea.org/images/audiocovers/2021_Jun/acov_tid351894_thumb.jpg)

*Artist: Melatonyn
*Album: Syzygy [ep]
*Year: 2021
*Genre: Atmospheric/Post-Black Metal
*Country: Germany (IMG:https://metalarea.org/forum/style_images/flags/Germany.png)
*Format: mp3@CBR320kbps
*Size: 48MB

Tracklist:
1.Sy 06:02
2.Zy 06:21
3.Gy 08:33
******************************
Total playing time: 20:56



Technical info
(IMG:https://metalarea.org/images/spectrogram/2021_Jun/6bcd761b81676b0844a8e8888519abde.png)
Input File: 02 Zy.mp3
Channels : 2
Sample Rate : 44100
Precision : 16-bit
Duration : 00:06:22.07 = 16849067 samples = 28654.9 CDDA sectors
File Size : 15.4M
Bit Rate : 323k
Sample Encoding: MPEG audio (layer I, II or III)
Comments :
Title=Zy
Artist=MELATONYN
Album=Syzygy
Tracknumber=2
Year=2021
Genre=Black Metal



Register


Go to the top of the page
  Insert nick Quick quote
+Quote Post

Reply to this topicStart new topic
2 User(s) are reading this topic (2 Guests and 0 Anonymous Users)
0 Members:

 



- Lo-Fi Version Support form
Copyrights and abuse reports form
Time is now: 18th June 2021 - 07:19:18