Welcome Guest ( Log In | Register )

> Releases Upload / Добавление релизов

Добавить релиз тут / Click here to add release
Рекомендованные обменники / Recommended file shares

> Ornamentos Del Miedo - Ecos (2021), Atmospheric Funeral Doom Metal
post Jun 10 2021, 13:11:15
Post #1

Правь статус, ####!111
**************
Group: Металариец
Posts: 26,371
Releases: 18968
From: Г.Харьков
On Forums: 9 years 1 month
Thanks: 378638 time(s)
Unknown


(IMG:https://metalarea.org/images/audiocovers/2021_Jun/acov_tid351895_thumb.jpg)

*Artist: Ornamentos Del Miedo
*Album: Ecos
*Year: 2021
*Genre: Atmospheric Funeral Doom Metal
*Country: Spain (IMG:https://metalarea.org/forum/style_images/flags/Spain.png)
*Format: mp3@CBR320kbps
*Size: 149MB

Tracklist:
1. Omega 10:51
2. Ecos 12:21
3. Heridas Abiertas 11:26
4. Animal Que Reza 10:08
5. Para Que Nada Nos Separe 11:55
6. Inexorable 08:30
******************************
Total playing time: 1:05:11




Extended info
Angel Everything (2017-present)
See also: Ad Nebula Nigra, Graveyard of Souls, Mass Burial, Logical End, ex-Aural Butchery, ex-Authority Crisis, ex-Fosa Komun


Technical info
(IMG:https://metalarea.org/images/spectrogram/2021_Jun/1ee46837fb7e9d069a298ac919069434.png)
Input File: 05 - Para Que Nada Nos Separe.mp3
Channels : 2
Sample Rate : 44100
Precision : 16-bit
Duration : 00:11:55.00 = 31531500 samples = 53625 CDDA sectors
File Size : 28.8M
Bit Rate : 322k
Sample Encoding: MPEG audio (layer I, II or III)
Comments :
Title=Para Que Nada Nos Separe
Artist=Ornamentos Del Miedo
Album=Ecos
Tracknumber=5
Year=2021-06-11
Genre=Metal
Discnumber=1



Register


Go to the top of the page
  Insert nick Quick quote
+Quote Post
 
Start new topic
Replies (1 - 4)
post Jun 10 2021, 22:01:11
Post #2

Full-of-Hate
**************
Group: Металариец
Posts: 4,417
Releases: 0
From: Moscow
On Forums: 11 years 11 months
Thanks: 4563 time(s)
Russian Federation


Funeral из описания можно справедливо убрать, в остальном весьма залипательный атмосферный дум со соляками, фоно и астматическим гроулом.
Мелодии присутствуют, даже в чем-то позитивная аура прорывается. Иногда складывается впечатление, что треки специально растянуты и склеены из вариативных кусков. Неплохо, но... пока просто "неплохо".


Go to the top of the page
  Insert nick Quick quote
+Quote Post
post Jun 10 2021, 22:19:06
Post #3

Три Литра
***
Group: Завсегдатай
Posts: 281
Releases: 0
On Forums: 3 years 4 months
Thanks: 114 time(s)
Belarus


Стандартный Doom Death Metal. Вдобавок, скучный и однообразный.
Go to the top of the page
  Insert nick Quick quote
+Quote Post
post Jun 11 2021, 20:37:17
Post #4

hearer & reader
**************
Group: Металариец
Posts: 9,751
Releases: 172
From: Moscow
On Forums: 13 years 9 months
Thanks: 10937 time(s)
Russian Federation


Register


Go to the top of the page
  Insert nick Quick quote
+Quote Post
post Yesterday, 08:29:12
Post #5

Три Литра
***
Group: Завсегдатай
Posts: 206
Releases: 0
From: TheМля
On Forums: 14 years 9 months
Thanks: 66 time(s)
Belarus


Что неграм скучно, то белым по кайфу
Go to the top of the page
  Insert nick Quick quote
+Quote Post

Reply to this topicStart new topic
2 User(s) are reading this topic (2 Guests and 0 Anonymous Users)
0 Members:

 



- Lo-Fi Version Support form
Copyrights and abuse reports form
Time is now: 25th June 2021 - 04:10:07