Welcome Guest ( Log In | Register )

> Releases Upload / Добавление релизов

Добавить релиз тут / Click here to add release
Рекомендованные обменники / Recommended file shares

 
Reply to this topicStart new topic
> Torsion - Demo 1990 [demo] (1990), Heavy/Thrash Metal
post Jun 10 2021, 13:12:27
Post #1

Подвал
**************
Group: Металариец
Posts: 16,113
Releases: 9224
From: Far East (Khabarovsk)
On Forums: 12 years 4 months
Thanks: 104073 time(s)
Russian Federation


(IMG:http://metalarea.org/images/audiocovers/2021_Jun/acov_tid351896_thumb.jpg)

*Artist: Torsion
*Album: Demo 1990 [demo]
*Year: 1990
*Genre: Heavy/Thrash Metal
*Country: Netherlands (IMG:http://metalarea.org/forum/style_images/flags/Netherlands.png)
*Format: mp3@CBR320kbps
*Size: 61MB

Tracklist:
1. Hello There, The I On You 00:15
2. The Artist 07:55
3. The Mirror 05:04
4. Assorted Crimes 06:05
5. Headbanger Suite 07:08
******************************
Total playing time: 26:27

Technical info
(IMG:http://metalarea.org/images/spectrogram/2021_Jun/6885fccb24f1881b4e788a1eb1869306.png)
Input File: 02-The Artist.mp3
Channels : 2
Sample Rate : 44100
Precision : 16-bit
Duration : 00:07:55.46 = 20967698 samples = 35659.4 CDDA sectors
File Size : 19.0M
Bit Rate : 320k
Sample Encoding: MPEG audio (layer I, II or III)
Comments :
Title=The Artist
Artist=Torsion (Hol)
Album=Demo 1990
Tracknumber=02
Year=1990
Genre=Thrash Metal



Register


Go to the top of the page
  Insert nick Quick quote
+Quote Post

Reply to this topicStart new topic
2 User(s) are reading this topic (2 Guests and 0 Anonymous Users)
0 Members:

 



- Lo-Fi Version Support form
Copyrights and abuse reports form
Time is now: 18th June 2021 - 07:43:00