Welcome Guest ( Log In | Register )

> Metalaxe - Depressive Vision [demo] (1990), Progressive Thrash Metal
post Jun 10 2021, 13:25:01
Post #1

Подвал
**************
Group: Металариец
Posts: 16,136
Releases: 9245
From: Far East (Khabarovsk)
On Forums: 12 years 4 months
Thanks: 104367 time(s)
Russian Federation


(IMG:http://metalarea.org/images/audiocovers/2021_Jun/acov_tid351897_thumb.jpg)

*Artist: Metalaxe
*Album: Depressive Vision [demo]
*Year: 1990
*Genre: Progressive Thrash Metal
*Country: Germany (IMG:http://metalarea.org/forum/style_images/flags/Germany.png)
*Format: mp3@CBR224kbps
*Size: 34MB

Tracklist:
1. Narrowed Individual 04:49
2. A Farewell To Happiness 06:37
3. Extremely Heavy Weather 04:12
4. The Value Of Time 04:12
5. Chaos Theory 05:00
******************************
Total playing time: 24:50

Extended info
This demo came from the cellars of T-Mag forum. Gratitude guys.


Technical info
(IMG:http://metalarea.org/images/spectrogram/2021_Jun/7cafab8c8f4bcf8913caaccb72b8a152.png)
Input File: 01-Narrowed Individual.mp3
Channels : 2
Sample Rate : 44100
Precision : 16-bit
Duration : 00:04:44.06 = 12526826 samples = 21304.1 CDDA sectors
File Size : 7.08M
Bit Rate : 199k
Sample Encoding: MPEG audio (layer I, II or III)
Comments :
Title=Narrowed Individual
Artist=Metalaxe (Ger)
Album=Depressive Vision (Demo)
Tracknumber=01
Year=1990
Genre=Thrash Metal



Register


Go to the top of the page
  Insert nick Quick quote
+Quote Post
 
Start new topic
Replies (1 - 3)
post Jun 11 2021, 02:02:29
Post #2

Девять Литров
*********
Group: Металариец
Posts: 995
Releases: 0
From: China
On Forums: 13 years 5 months
Thanks: 744 time(s)
Bulgaria


Wow, that's a most rare item.. thanks a lot, man... (IMG:style_emoticons/default/9.gif)

Ну где ты ето нашел?
Go to the top of the page
  Insert nick Quick quote
+Quote Post
post Jun 11 2021, 04:25:28
Post #3

Девять Литров
*********
Group: Металариец
Posts: 995
Releases: 0
From: China
On Forums: 13 years 5 months
Thanks: 744 time(s)
Bulgaria


Я по всей вселенной искал...
Go to the top of the page
  Insert nick Quick quote
+Quote Post
post Jun 11 2021, 07:48:58
Post #4

Девять Литров
*********
Group: Металариец
Posts: 995
Releases: 0
From: China
On Forums: 13 years 5 months
Thanks: 744 time(s)
Bulgaria


Упс, понял где... хорошее место ето (IMG:style_emoticons/default/pray.gif)
Go to the top of the page
  Insert nick Quick quote
+Quote Post

Reply to this topicStart new topic
1 User(s) are reading this topic (1 Guests and 0 Anonymous Users)
0 Members:

 



- Lo-Fi Version Support form
Copyrights and abuse reports form
Time is now: 25th June 2021 - 04:45:14