Welcome Guest ( Log In | Register )

> Releases Upload / Добавление релизов

Добавить релиз тут / Click here to add release
Рекомендованные обменники / Recommended file shares

 
Reply to this topicStart new topic
> Bukkake With Radioactive Semen From Futa Yangire & Morbid Gorgeous Girl - 2 Ways Of Hentai Fetish [split] (2021), Goregrind | Porno Goregrind
post Jun 10 2021, 13:30:43
Post #1

Serial Uploader
Group Icon
Group: V.I.P
Posts: 37,608
Releases: 35780
From: Lithuania
On Forums: 13 years 1 month
Thanks: 433149 time(s)
Lithuania


(IMG:https://metalarea.org/images/audiocovers/2021_Jun/acov_tid351898_thumb.jpg)

*Artist: Bukkake With Radioactive Semen From Futa Yangire & Morbid Gorgeous Girl
*Album: 2 Ways Of Hentai Fetish [split]
*Year: 2021
*Genre: Goregrind | Porno Goregrind
*Country: Kazakhstan (IMG:https://metalarea.org/forum/style_images/flags/Kazakhstan.png) | Costa Rica (IMG:https://metalarea.org/forum/style_images/flags/Costa%20Rica.png)
*Format: mp3@CBR320kbps
*Size: 27MB

Tracklist:
Bukkake With Radioactive Semen From Futa Yangire;
01. No, I Love Your Legs 02:07
Morbid Gorgeous Girl;
02. Squeeze My Dick Onee-San 03:15
Bukkake With Radioactive Semen From Futa Yangire:
03. Welcome To Cumzone, Only Come Inside Anime Legs(sus) 02:48
Morbid Gorgeous Girl:
04. Infernal Bukkake Gang-Bang 03:20
******************************
Total playing time: 11:30




Technical info
(IMG:https://metalarea.org/images/spectrogram/2021_Jun/cee81cd964e103c03194a594071f917b.png)
Input File: 01. No, i Love Your Legs.mp3
Channels : 2
Sample Rate : 44100
Precision : 16-bit
Duration : 00:02:08.06 = 5647402 samples = 9604.43 CDDA sectors
File Size : 5.26M
Bit Rate : 328k
Sample Encoding: MPEG audio (layer I, II or III)
Comments :
Title=No, i Love Your Legs
Artist=Bukkake with Radioactive Semen from Futa Yangire
Album=2 Ways of Hentai Fetish
Tracknumber=1
Year=2021



Register


Go to the top of the page
  Insert nick Quick quote
+Quote Post

Reply to this topicStart new topic
1 User(s) are reading this topic (1 Guests and 0 Anonymous Users)
0 Members:

 



- Lo-Fi Version Support form
Copyrights and abuse reports form
Time is now: 24th July 2021 - 13:06:40