Welcome Guest ( Log In | Register )

 
Reply to this topicStart new topic
> Tereza - Rapace (1997), Death/Groove Metal
post Jun 10 2021, 13:38:55
Post #1

Подвал
**************
Group: Металариец
Posts: 16,136
Releases: 9245
From: Far East (Khabarovsk)
On Forums: 12 years 4 months
Thanks: 104370 time(s)
Russian Federation


(IMG:http://metalarea.org/images/audiocovers/2021_Jun/acov_tid351899_thumb.jpg)

*Artist: Tereza
*Album: Rapace
*Year: 1997
*Genre: Death/Groove Metal
*Country: Canada (IMG:http://metalarea.org/forum/style_images/flags/Canada.png)
*Format: mp3@CBR256kbps
*Size: 63MB

Tracklist:
1. Zombie Fever 04:50
2. Fail 04:42
3. Psycho Drown 02:55
4. Autobiographie 04:16
5. Act Of Axes 04:04
6. Father Fucker 04:24
7. Scapulomency 03:40
8. Ace Of Spades (Motörhead cover) 02:32
9. Last Breath 03:18
******************************
Total playing time: 34:41

Extended info
Recorded October 1997 at Le Saphir, Beauport, Quebec, Canada.


Technical info
(IMG:http://metalarea.org/images/spectrogram/2021_Jun/d35ead1aa12b5db08ca1c376309e4293.png)
Input File: 01-Zombie Fever.mp3
Channels : 2
Sample Rate : 48000
Precision : 16-bit
Duration : 00:04:50.96 = 13965888 samples ~ 21821.7 CDDA sectors
File Size : 9.31M
Bit Rate : 256k
Sample Encoding: MPEG audio (layer I, II or III)
Comments :
Title=Zombie Fever
Artist=Tereza (Can)
Album=Rapace
Tracknumber=01
Year=1997
Genre=Death Metal



Register


Go to the top of the page
  Insert nick Quick quote
+Quote Post

Reply to this topicStart new topic
1 User(s) are reading this topic (1 Guests and 0 Anonymous Users)
0 Members:

 



- Lo-Fi Version Support form
Copyrights and abuse reports form
Time is now: 25th June 2021 - 05:09:43