Welcome Guest ( Log In | Register )

 
Reply to this topicStart new topic
> Unearthed - Unearthed (1998), Death/Groove Metal (D5)
post Jun 10 2021, 13:50:23
Post #1

Подвал
**************
Group: Металариец
Posts: 16,136
Releases: 9245
From: Far East (Khabarovsk)
On Forums: 12 years 4 months
Thanks: 104370 time(s)
Russian Federation


(IMG:http://metalarea.org/images/audiocovers/2021_Jun/acov_tid351900_thumb.JPG)

*Artist: Unearthed
*Album: Unearthed
*Year: 1998
*Genre: Death/Groove Metal
*Country: United States (IMG:http://metalarea.org/forum/style_images/flags/United%20States.png)
*Format: mp3@CBR320kbps
*Size: 142MB

Tracklist:
1. Silence And The Mirror 04:31
2. Deepest Regrets 07:37
3. The Primate Exhibit 09:38
4. Wandering 02:23
5. An Anatomy Of Failure 05:53
6. Melted Plastic Faces 05:03
7. My Glorious Martyr 11:11
8. Horizon 06:00
9. Invisible Lab Rats 14:20
******************************
Total playing time: 1:06:36



Extended info
Band from Simi Valley, California.
Recorded at Enchantmonk Studios, Sacramento, CA.


Technical info
(IMG:http://metalarea.org/images/spectrogram/2021_Jun/ba032995f8750d1460291e9342daaa81.png)
Input File: 01-Silence And the Mirror.mp3
Channels : 2
Sample Rate : 48000
Precision : 16-bit
Duration : 00:04:31.25 = 13020048 samples ~ 20343.8 CDDA sectors
File Size : 10.9M
Bit Rate : 321k
Sample Encoding: MPEG audio (layer I, II or III)
Comments :
Title=Silence and the Mirror
Artist=Unearthed
Album=Unearthed
Tracknumber=01
Year=1998
Genre=Death Metal



Register


Go to the top of the page
  Insert nick Quick quote
+Quote Post

Reply to this topicStart new topic
1 User(s) are reading this topic (1 Guests and 0 Anonymous Users)
0 Members:

 



- Lo-Fi Version Support form
Copyrights and abuse reports form
Time is now: 25th June 2021 - 05:40:51