Welcome Guest ( Log In | Register )

> Releases Upload / Добавление релизов

Добавить релиз тут / Click here to add release
Рекомендованные обменники / Recommended file shares

 
Reply to this topicStart new topic
> Nekrospawn - Halo Of Terror (2012), Black Metal
post Jun 10 2021, 13:57:16
Post #1

Правь статус, ####!616
**************
Group: Металариец
Posts: 6,424
Releases: 4901
From: 55°35’N 38°08’E
On Forums: 12 years 11 months
Thanks: 90538 time(s)
Unknown


(IMG:https://metalarea.org/images/audiocovers/2021_Jun/acov_tid351901_thumb.jpg)

*Artist: Nekrospawn
*Album: Halo Of Terror
*Year: 2012
*Genre: Black Metal
*Country: Russian Federation (IMG:https://metalarea.org/forum/style_images/flags/Russian%20Federation.png)
*Format: mp3@CBR320kbps
*Size: 61MB

Tracklist:
1. Abomination 02:37
2. Through the Shroud... 03:08
3. Radiance of Apocalypse 03:45
4. Sepulchral Blackness 04:17
5. Halo of Terror 03:57
6. Cut the Flowers of Life 02:28
7. Life's Smoldering Agony 03:32
8. VON 02:18
******************************
Total playing time: 26:02



Technical info
(IMG:https://metalarea.org/images/spectrogram/2021_Jun/c8cd2afade9780333c88f3b12e30436a.png)
Input File: 01 Abomination.mp3
Channels : 2
Sample Rate : 44100
Precision : 16-bit
Duration : 00:02:37.09 = 6927493 samples = 11781.5 CDDA sectors
File Size : 6.43M
Bit Rate : 327k
Sample Encoding: MPEG audio (layer I, II or III)
Comments :
Title=Abomination
Artist=NEKROSPAWN
Album=Halo of Terror
Tracknumber=1
Year=2012
Genre=Black Metal



Register


Go to the top of the page
  Insert nick Quick quote
+Quote Post

Reply to this topicStart new topic
1 User(s) are reading this topic (1 Guests and 0 Anonymous Users)
0 Members:

 



- Lo-Fi Version Support form
Copyrights and abuse reports form
Time is now: 25th June 2021 - 05:54:57