Welcome Guest ( Log In | Register )

> Releases Upload / Добавление релизов

Добавить релиз тут / Click here to add release
Рекомендованные обменники / Recommended file shares

 
Reply to this topicStart new topic
> Nekrospawn - Into The Mazes Of Death [ep] (2015), Black Metal
post Jun 10 2021, 14:02:24
Post #1

Правь статус, ####!616
**************
Group: Металариец
Posts: 6,424
Releases: 4901
From: 55°35’N 38°08’E
On Forums: 12 years 11 months
Thanks: 90511 time(s)
Unknown


(IMG:https://metalarea.org/images/audiocovers/2021_Jun/acov_tid351902_thumb.jpg)

*Artist: Nekrospawn
*Album: Into The Mazes Of Death [ep]
*Year: 2015
*Genre: Black Metal
*Country: Russian Federation (IMG:https://metalarea.org/forum/style_images/flags/Russian%20Federation.png)
*Format: mp3@CBR320kbps
*Size: 53MB

Tracklist:
1. Raging Funeral Conflagration 04:58
2. The Devourer 05:42
3. Before the Monument of Imminence 06:40
4. Black Poison 05:40
******************************
Total playing time: 23:00



Technical info
(IMG:https://metalarea.org/images/spectrogram/2021_Jun/56cb4ae40b013d7c2fc689a4b5762359.png)
Input File: 01 Raging Funeral Conflagration.mp3
Channels : 2
Sample Rate : 44100
Precision : 16-bit
Duration : 00:04:58.26 = 13153222 samples = 22369.4 CDDA sectors
File Size : 12.1M
Bit Rate : 325k
Sample Encoding: MPEG audio (layer I, II or III)
Comments :
Title=Raging Funeral Conflagration
Artist=NEKROSPAWN
Album=Into the Mazes of Death
Tracknumber=1
Year=2015
Genre=Black Metal



Register


Go to the top of the page
  Insert nick Quick quote
+Quote Post

Reply to this topicStart new topic
1 User(s) are reading this topic (1 Guests and 0 Anonymous Users)
0 Members:

 



- Lo-Fi Version Support form
Copyrights and abuse reports form
Time is now: 25th June 2021 - 03:53:53