Welcome Guest ( Log In | Register )

> Releases Upload / Добавление релизов

Добавить релиз тут / Click here to add release
Рекомендованные обменники / Recommended file shares

 
Reply to this topicStart new topic
> Nekrospawn - Breath Of Horror (2018), Black Metal
post Jun 10 2021, 14:07:31
Post #1

Правь статус, ####!616
**************
Group: Металариец
Posts: 6,424
Releases: 4901
From: 55°35’N 38°08’E
On Forums: 12 years 11 months
Thanks: 90517 time(s)
Unknown


(IMG:https://metalarea.org/images/audiocovers/2021_Jun/acov_tid351903_thumb.jpg)

*Artist: Nekrospawn
*Album: Breath Of Horror
*Year: 2018
*Genre: Black Metal
*Country: Russian Federation (IMG:https://metalarea.org/forum/style_images/flags/Russian%20Federation.png)
*Format: mp3@CBR320kbps
*Size: 79MB

Tracklist:
1. Intro 01:06
2. Crimson Storm of Damnation 03:51
3. Dead Surface of the Green River 05:51
4. Behind the Edge of Being 05:13
5. Festival 07:23
6. Black Wreath 05:16
7. Dead One's Grin 05:40
******************************
Total playing time: 34:20



Technical info
(IMG:https://metalarea.org/images/spectrogram/2021_Jun/f4fc5dd94f39193d1ca9c4283bb491b4.png)
Input File: 02 Crimson Storm of Damnation.mp3
Channels : 2
Sample Rate : 44100
Precision : 16-bit
Duration : 00:03:51.83 = 10223527 samples = 17387 CDDA sectors
File Size : 9.42M
Bit Rate : 325k
Sample Encoding: MPEG audio (layer I, II or III)
Comments :
Title=Crimson Storm of Damnation
Artist=NEKROSPAWN
Album=Breath of Horror
Tracknumber=2
Year=2018
Genre=Black Metal



Register


Go to the top of the page
  Insert nick Quick quote
+Quote Post

Reply to this topicStart new topic
1 User(s) are reading this topic (1 Guests and 0 Anonymous Users)
0 Members:

 



- Lo-Fi Version Support form
Copyrights and abuse reports form
Time is now: 25th June 2021 - 04:16:55