Welcome Guest ( Log In | Register )

> Releases Upload / Добавление релизов

Добавить релиз тут / Click here to add release
Рекомендованные обменники / Recommended file shares

 
Reply to this topicStart new topic
> Unearthed - Hybrid [demo] (1995), Death Metal (D5)
post Jun 10 2021, 14:09:56
Post #1

Подвал
**************
Group: Металариец
Posts: 16,136
Releases: 9245
From: Far East (Khabarovsk)
On Forums: 12 years 4 months
Thanks: 104359 time(s)
Russian Federation


(IMG:http://metalarea.org/images/audiocovers/2021_Jun/acov_tid351904_thumb.jpg)

*Artist: Unearthed
*Album: Hybrid [demo]
*Year: 1995
*Genre: Death Metal
*Country: United States (IMG:http://metalarea.org/forum/style_images/flags/United%20States.png)
*Format: mp3@CBR320kbps
*Size: 76MB

Tracklist:
1. Losing The Known 07:15
2. Seeping 05:25
3. Hybrid 06:49
4. Expanding The Lifeless 06:26
5. Inner Seasons 06:33
******************************
Total playing time: 32:28



Extended info
Band from Simi Valley, California.


Technical info
(IMG:http://metalarea.org/images/spectrogram/2021_Jun/1221f3257e8537e16e2667f87faad7e6.png)
Input File: 01-Losing the Known.mp3
Channels : 2
Sample Rate : 44100
Precision : 16-bit
Duration : 00:07:18.94 = 19357078 samples = 32920.2 CDDA sectors
File Size : 17.8M
Bit Rate : 324k
Sample Encoding: MPEG audio (layer I, II or III)
Comments :
Title=Losing the Known
Artist=Unearthed (US, CA)
Album=Hybrid (Demo)
Tracknumber=01
Year=1995
Genre=Death Metal



Register


Go to the top of the page
  Insert nick Quick quote
+Quote Post

Reply to this topicStart new topic
1 User(s) are reading this topic (1 Guests and 0 Anonymous Users)
0 Members:

 



- Lo-Fi Version Support form
Copyrights and abuse reports form
Time is now: 25th June 2021 - 04:34:37